  0
SECTION
  2
HEADER
  9
$ACADVER
  1
AC1015
  9
$ACADMAINTVER
 70
     6
  9
$DWGCODEPAGE
  3
ANSI_1252
  9
$INSBASE
 10
0.0
 20
0.0
 30
0.0
  9
$EXTMIN
 10
0.0
 20
0.0
 30
0.0
  9
$EXTMAX
 10
420.0
 20
297.0
 30
0.0
  9
$LIMMIN
 10
0.0
 20
0.0
  9
$LIMMAX
 10
420.0
 20
297.0
  9
$ORTHOMODE
 70
     0
  9
$REGENMODE
 70
     1
  9
$FILLMODE
 70
     1
  9
$QTEXTMODE
 70
     0
  9
$MIRRTEXT
 70
     1
  9
$LTSCALE
 40
1.0
  9
$ATTMODE
 70
     1
  9
$TEXTSIZE
 40
3.5
  9
$TRACEWID
 40
1.0
  9
$TEXTSTYLE
  7
Standard
  9
$CLAYER
  8
0
  9
$CELTYPE
  6
ByLayer
  9
$CECOLOR
 62
   256
  9
$CELTSCALE
 40
1.0
  9
$DISPSILH
 70
     0
  9
$DIMSCALE
 40
1.0
  9
$DIMASZ
 40
3.302
  9
$DIMEXO
 40
1.0
  9
$DIMDLI
 40
3.75
  9
$DIMRND
 40
0.0
  9
$DIMDLE
 40
0.0
  9
$DIMEXE
 40
1.0
  9
$DIMTP
 40
0.0
  9
$DIMTM
 40
0.0
  9
$DIMTXT
 40
3.5
  9
$DIMCEN
 40
2.5
  9
$DIMTSZ
 40
0.0
  9
$DIMTOL
 70
     0
  9
$DIMLIM
 70
     0
  9
$DIMTIH
 70
     1
  9
$DIMTOH
 70
     1
  9
$DIMSE1
 70
     0
  9
$DIMSE2
 70
     0
  9
$DIMTAD
 70
     1
  9
$DIMZIN
 70
     1
  9
$DIMBLK
  1

  9
$DIMASO
 70
     1
  9
$DIMSHO
 70
     1
  9
$DIMPOST
  1

  9
$DIMAPOST
  1

  9
$DIMALT
 70
     0
  9
$DIMALTD
 70
     3
  9
$DIMALTF
 40
0.0393700787
  9
$DIMLFAC
 40
1.0
  9
$DIMTOFL
 70
     1
  9
$DIMTVP
 40
0.0
  9
$DIMTIX
 70
     0
  9
$DIMSOXD
 70
     0
  9
$DIMSAH
 70
     0
  9
$DIMBLK1
  1

  9
$DIMBLK2
  1

  9
$DIMSTYLE
  2
ISO-25
  9
$DIMCLRD
 70
     0
  9
$DIMCLRE
 70
     0
  9
$DIMCLRT
 70
     0
  9
$DIMTFAC
 40
1.0
  9
$DIMGAP
 40
1.524
  9
$DIMJUST
 70
     0
  9
$DIMSD1
 70
     0
  9
$DIMSD2
 70
     0
  9
$DIMTOLJ
 70
     0
  9
$DIMTZIN
 70
     1
  9
$DIMALTZ
 70
     0
  9
$DIMALTTZ
 70
     0
  9
$DIMUPT
 70
     0
  9
$DIMDEC
 70
     2
  9
$DIMTDEC
 70
     2
  9
$DIMALTU
 70
     2
  9
$DIMALTTD
 70
     3
  9
$DIMTXSTY
  7
Standard
  9
$DIMAUNIT
 70
     0
  9
$DIMADEC
 70
     2
  9
$DIMALTRND
 40
0.0
  9
$DIMAZIN
 70
     0
  9
$DIMDSEP
 70
    44
  9
$DIMATFIT
 70
     3
  9
$DIMFRAC
 70
     0
  9
$DIMLDRBLK
  1

  9
$DIMLUNIT
 70
     2
  9
$DIMLWD
 70
    -2
  9
$DIMLWE
 70
    -2
  9
$DIMTMOVE
 70
     0
  9
$LUNITS
 70
     2
  9
$LUPREC
 70
     2
  9
$SKETCHINC
 40
1.0
  9
$FILLETRAD
 40
10.0
  9
$AUNITS
 70
     0
  9
$AUPREC
 70
     2
  9
$MENU
  1
.
  9
$ELEVATION
 40
0.0
  9
$PELEVATION
 40
0.0
  9
$THICKNESS
 40
0.0
  9
$LIMCHECK
 70
     0
  9
$CHAMFERA
 40
0.0
  9
$CHAMFERB
 40
0.0
  9
$CHAMFERC
 40
0.0
  9
$CHAMFERD
 40
0.0
  9
$SKPOLY
 70
     0
  9
$TDCREATE
 40
2458553.621134224
  9
$TDUCREATE
 40
2458553.537800891
  9
$TDUPDATE
 40
2458553.621137836
  9
$TDUUPDATE
 40
2458553.537804503
  9
$TDINDWG
 40
0.0000000116
  9
$TDUSRTIMER
 40
0.0000000116
  9
$USRTIMER
 70
     1
  9
$ANGBASE
 50
0.0
  9
$ANGDIR
 70
     0
  9
$PDMODE
 70
     0
  9
$PDSIZE
 40
-1.0
  9
$PLINEWID
 40
0.0
  9
$SPLFRAME
 70
     0
  9
$SPLINETYPE
 70
     6
  9
$SPLINESEGS
 70
     8
  9
$HANDSEED
  5
4EA
  9
$SURFTAB1
 70
     6
  9
$SURFTAB2
 70
     6
  9
$SURFTYPE
 70
     6
  9
$SURFU
 70
     6
  9
$SURFV
 70
     6
  9
$UCSBASE
  2

  9
$UCSNAME
  2

  9
$UCSORG
 10
0.0
 20
0.0
 30
0.0
  9
$UCSXDIR
 10
1.0
 20
0.0
 30
0.0
  9
$UCSYDIR
 10
0.0
 20
1.0
 30
0.0
  9
$UCSORTHOREF
  2

  9
$UCSORTHOVIEW
 70
     0
  9
$UCSORGTOP
 10
0.0
 20
0.0
 30
0.0
  9
$UCSORGBOTTOM
 10
0.0
 20
0.0
 30
0.0
  9
$UCSORGLEFT
 10
0.0
 20
0.0
 30
0.0
  9
$UCSORGRIGHT
 10
0.0
 20
0.0
 30
0.0
  9
$UCSORGFRONT
 10
0.0
 20
0.0
 30
0.0
  9
$UCSORGBACK
 10
0.0
 20
0.0
 30
0.0
  9
$PUCSBASE
  2

  9
$PUCSNAME
  2

  9
$PUCSORG
 10
0.0
 20
0.0
 30
0.0
  9
$PUCSXDIR
 10
1.0
 20
0.0
 30
0.0
  9
$PUCSYDIR
 10
0.0
 20
1.0
 30
0.0
  9
$PUCSORTHOREF
  2

  9
$PUCSORTHOVIEW
 70
     0
  9
$PUCSORGTOP
 10
0.0
 20
0.0
 30
0.0
  9
$PUCSORGBOTTOM
 10
0.0
 20
0.0
 30
0.0
  9
$PUCSORGLEFT
 10
0.0
 20
0.0
 30
0.0
  9
$PUCSORGRIGHT
 10
0.0
 20
0.0
 30
0.0
  9
$PUCSORGFRONT
 10
0.0
 20
0.0
 30
0.0
  9
$PUCSORGBACK
 10
0.0
 20
0.0
 30
0.0
  9
$USERI1
 70
     0
  9
$USERI2
 70
     0
  9
$USERI3
 70
     0
  9
$USERI4
 70
     0
  9
$USERI5
 70
     0
  9
$USERR1
 40
0.0
  9
$USERR2
 40
0.0
  9
$USERR3
 40
0.0
  9
$USERR4
 40
0.0
  9
$USERR5
 40
0.0
  9
$WORLDVIEW
 70
     1
  9
$SHADEDGE
 70
     3
  9
$SHADEDIF
 70
    70
  9
$TILEMODE
 70
     1
  9
$MAXACTVP
 70
    64
  9
$PINSBASE
 10
0.0
 20
0.0
 30
0.0
  9
$PLIMCHECK
 70
     0
  9
$PEXTMIN
 10
1.0000000000E+20
 20
1.0000000000E+20
 30
1.0000000000E+20
  9
$PEXTMAX
 10
-1.0000000000E+20
 20
-1.0000000000E+20
 30
-1.0000000000E+20
  9
$PLIMMIN
 10
0.0
 20
0.0
  9
$PLIMMAX
 10
420.0
 20
297.0
  9
$UNITMODE
 70
     0
  9
$VISRETAIN
 70
     1
  9
$PLINEGEN
 70
     0
  9
$PSLTSCALE
 70
     1
  9
$TREEDEPTH
 70
  3020
  9
$CMLSTYLE
  2
Standard
  9
$CMLJUST
 70
     0
  9
$CMLSCALE
 40
20.0
  9
$PROXYGRAPHICS
 70
     1
  9
$MEASUREMENT
 70
     1
  9
$CELWEIGHT
370
    -1
  9
$ENDCAPS
280
     0
  9
$JOINSTYLE
280
     0
  9
$LWDISPLAY
290
     1
  9
$INSUNITS
 70
     4
  9
$HYPERLINKBASE
  1

  9
$STYLESHEET
  1

  9
$XEDIT
290
     1
  9
$CEPSNTYPE
380
     0
  9
$PSTYLEMODE
290
     1
  9
$FINGERPRINTGUID
  2
{38DC4C95-2BC3-43F4-ADD4-20520B8A0950}
  9
$VERSIONGUID
  2
{FAEB1C32-E019-11D5-929B-00C0DF256EC4}
  9
$EXTNAMES
290
     1
  9
$PSVPSCALE
 40
0.0
  9
$OLESTARTUP
290
     0
  0
ENDSEC
  0
SECTION
  2
CLASSES
  0
CLASS
  1
ACDBDICTIONARYWDFLT
  2
AcDbDictionaryWithDefault
  3
ObjectDBX Classes
 90
        0
280
     0
281
     0
  0
CLASS
  1
VISUALSTYLE
  2
AcDbVisualStyle
  3
ObjectDBX Classes
 90
     4095
280
     0
281
     0
  0
CLASS
  1
MATERIAL
  2
AcDbMaterial
  3
ObjectDBX Classes
 90
     1153
280
     0
281
     0
  0
CLASS
  1
SCALE
  2
AcDbScale
  3
ObjectDBX Classes
 90
     1153
280
     0
281
     0
  0
CLASS
  1
TABLESTYLE
  2
AcDbTableStyle
  3
ObjectDBX Classes
 90
     4095
280
     0
281
     0
  0
CLASS
  1
MLEADERSTYLE
  2
AcDbMLeaderStyle
  3
ACDB_MLEADERSTYLE_CLASS
 90
     4095
280
     0
281
     0
  0
CLASS
  1
SUN
  2
AcDbSun
  3
SCENEOE
 90
     1153
280
     0
281
     0
  0
CLASS
  1
ACDBPLACEHOLDER
  2
AcDbPlaceHolder
  3
ObjectDBX Classes
 90
        0
280
     0
281
     0
  0
CLASS
  1
LAYOUT
  2
AcDbLayout
  3
ObjectDBX Classes
 90
        0
280
     0
281
     0
  0
ENDSEC
  0
SECTION
  2
TABLES
  0
TABLE
  2
VPORT
  5
8
330
0
100
AcDbSymbolTable
 70
     1
  0
VPORT
  5
29
330
8
100
AcDbSymbolTableRecord
100
AcDbViewportTableRecord
  2
*Active
 70
     0
 10
0.0
 20
0.0
 11
1.0
 21
1.0
 12
210.0
 22
148.5
 13
0.0
 23
0.0
 14
10.0
 24
10.0
 15
10.0
 25
10.0
 16
0.0
 26
0.0
 36
1.0
 17
0.0
 27
0.0
 37
0.0
 40
297.0
 41
1.4141414141
 42
50.0
 43
0.0
 44
0.0
 50
0.0
 51
0.0
 71
     0
 72
  2000
 73
     1
 74
     3
 75
     0
 76
     0
 77
     0
 78
     0
281
     0
 65
     1
110
0.0
120
0.0
130
0.0
111
1.0
121
0.0
131
0.0
112
0.0
122
1.0
132
0.0
 79
     0
146
0.0
  0
ENDTAB
  0
TABLE
  2
LTYPE
  5
5
330
0
100
AcDbSymbolTable
 70
     6
  0
LTYPE
  5
14
330
5
100
AcDbSymbolTableRecord
100
AcDbLinetypeTableRecord
  2
ByBlock
 70
     0
  3

 72
    65
 73
     0
 40
0.0
  0
LTYPE
  5
15
330
5
100
AcDbSymbolTableRecord
100
AcDbLinetypeTableRecord
  2
ByLayer
 70
     0
  3

 72
    65
 73
     0
 40
0.0
  0
LTYPE
  5
16
330
5
100
AcDbSymbolTableRecord
100
AcDbLinetypeTableRecord
  2
Continuous
 70
     0
  3
Solid line
 72
    65
 73
     0
 40
0.0
  0
LTYPE
  5
6E
330
5
100
AcDbSymbolTableRecord
100
AcDbLinetypeTableRecord
  2
HIDDEN
 70
     0
  3
Hidden __ __ __ __ __ __ __ __ __ __ __ __ __ __
 72
    65
 73
     2
 40
1.905
 49
1.27
 74
     0
 49
-0.635
 74
     0
  0
LTYPE
  5
6F
330
5
100
AcDbSymbolTableRecord
100
AcDbLinetypeTableRecord
  2
PHANTOM
 70
     0
  3
Phantom ______  __  __  ______  __  __  ______
 72
    65
 73
     6
 40
12.7
 49
6.35
 74
     0
 49
-1.27
 74
     0
 49
1.27
 74
     0
 49
-1.27
 74
     0
 49
1.27
 74
     0
 49
-1.27
 74
     0
  0
LTYPE
  5
70
330
5
100
AcDbSymbolTableRecord
100
AcDbLinetypeTableRecord
  2
CENTER
 70
     0
  3
Center ____ _ ____ _ ____ _ ____ _ ____ _ ____
 72
    65
 73
     4
 40
10.16
 49
6.35
 74
     0
 49
-1.27
 74
     0
 49
1.27
 74
     0
 49
-1.27
 74
     0
  0
LTYPE
  5
71
330
5
100
AcDbSymbolTableRecord
100
AcDbLinetypeTableRecord
  2
CENTERX2
 70
     0
  3
Center (2x) ________  __  ________  __  _____
 72
    65
 73
     4
 40
20.32
 49
12.7
 74
     0
 49
-2.54
 74
     0
 49
2.54
 74
     0
 49
-2.54
 74
     0
  0
LTYPE
  5
72
330
5
100
AcDbSymbolTableRecord
100
AcDbLinetypeTableRecord
  2
DOT2
 70
     0
  3
Dot (.5x) ........................................
 72
    65
 73
     2
 40
0.635
 49
0.0
 74
     0
 49
-0.635
 74
     0
  0
ENDTAB
  0
TABLE
  2
LAYER
  5
2
330
0
100
AcDbSymbolTable
 70
     4
  0
LAYER
  5
10
330
2
100
AcDbSymbolTableRecord
100
AcDbLayerTableRecord
  2
0
 70
     0
 62
     7
  6
Continuous
370
    -3
390
F
  0
LAYER
  5
73
330
2
100
AcDbSymbolTableRecord
100
AcDbLayerTableRecord
  2
FORMAT
 70
     0
 62
     7
  6
Continuous
370
    -3
390
F
  0
LAYER
  5
74
330
2
100
AcDbSymbolTableRecord
100
AcDbLayerTableRecord
  2
DIM
 70
     0
 62
   230
  6
Continuous
370
    -3
390
F
  0
LAYER
  5
75
330
2
100
AcDbSymbolTableRecord
100
AcDbLayerTableRecord
  2
CENTER
 70
     0
 62
   174
  6
Continuous
370
    -3
390
F
  0
ENDTAB
  0
TABLE
  2
STYLE
  5
3
330
0
100
AcDbSymbolTable
 70
     3
  0
STYLE
  5
11
330
3
100
AcDbSymbolTableRecord
100
AcDbTextStyleTableRecord
  2
Standard
 70
     0
 40
0.0
 41
1.0
 50
0.0
 71
     0
 42
3.5
  3
txt
  4

  0
STYLE
  5
AC
330
3
100
AcDbSymbolTableRecord
100
AcDbTextStyleTableRecord
  2
SLDTEXTSTYLE0
 70
     0
 40
0.0
 41
0.75
 50
0.0
 71
     0
 42
3.5
  3
TXT
  4

  0
STYLE
  5
C6
330
3
100
AcDbSymbolTableRecord
100
AcDbTextStyleTableRecord
  2
SLDTEXTSTYLE1
 70
     0
 40
0.0
 41
0.6875
 50
0.0
 71
     0
 42
3.5
  3
TXT
  4

  0
ENDTAB
  0
TABLE
  2
VIEW
  5
6
330
0
100
AcDbSymbolTable
 70
     0
  0
ENDTAB
  0
TABLE
  2
UCS
  5
7
330
0
100
AcDbSymbolTable
 70
     0
  0
ENDTAB
  0
TABLE
  2
APPID
  5
9
330
0
100
AcDbSymbolTable
 70
     1
  0
APPID
  5
12
330
9
100
AcDbSymbolTableRecord
100
AcDbRegAppTableRecord
  2
ACAD
 70
     0
  0
ENDTAB
  0
TABLE
  2
DIMSTYLE
  5
A
330
0
100
AcDbSymbolTable
 70
     2
100
AcDbDimStyleTable
  0
DIMSTYLE
105
27
330
A
100
AcDbSymbolTableRecord
100
AcDbDimStyleTableRecord
  2
ISO-25
 70
     0
 41
2.5
 42
0.625
 43
3.75
 44
1.25
 73
     0
 74
     0
 77
     1
 78
     8
140
2.5
141
2.5
143
0.0393700787
147
0.625
171
     3
172
     1
178
     0
271
     2
272
     2
274
     3
278
    44
283
     0
284
     8
340
11
  0
DIMSTYLE
105
30D
102
{ACAD_REACTORS
330
30C
330
317
330
377
102
}
330
A
100
AcDbSymbolTableRecord
100
AcDbDimStyleTableRecord
  2
SLDDIMSTYLE0
 70
     0
 41
3.302
 44
0.0
 45
0.000000001
 73
     0
 74
     0
 77
     1
 78
     4
 79
     1
140
3.5
147
0.875
173
     1
178
     0
271
     2
272
     2
276
     2
284
    12
340
AC
  0
ENDTAB
  0
TABLE
  2
BLOCK_RECORD
  5
1
330
0
100
AcDbSymbolTable
 70
     7
  0
BLOCK_RECORD
  5
1F
330
1
100
AcDbSymbolTableRecord
100
AcDbBlockTableRecord
  2
*Model_Space
340
22
  0
BLOCK_RECORD
  5
1B
330
1
100
AcDbSymbolTableRecord
100
AcDbBlockTableRecord
  2
*Paper_Space
340
1E
  0
BLOCK_RECORD
  5
23
330
1
100
AcDbSymbolTableRecord
100
AcDbBlockTableRecord
  2
*Paper_Space0
340
26
  0
BLOCK_RECORD
  5
D1
330
1
100
AcDbSymbolTableRecord
100
AcDbBlockTableRecord
  2
SW_NOTE_0
340
0
102
{BLKREFS
331
D7
102
}
  0
BLOCK_RECORD
  5
D9
330
1
100
AcDbSymbolTableRecord
100
AcDbBlockTableRecord
  2
SW_NOTE_1
340
0
102
{BLKREFS
331
E2
102
}
  0
BLOCK_RECORD
  5
E8
330
1
100
AcDbSymbolTableRecord
100
AcDbBlockTableRecord
  2
SW_NOTE_2
340
0
102
{BLKREFS
331
F1
102
}
  0
BLOCK_RECORD
  5
30E
330
1
100
AcDbSymbolTableRecord
100
AcDbBlockTableRecord
  2
_D
340
0
  0
BLOCK_RECORD
  5
318
330
1
100
AcDbSymbolTableRecord
100
AcDbBlockTableRecord
  2
_D_1
340
0
  0
BLOCK_RECORD
  5
378
330
1
100
AcDbSymbolTableRecord
100
AcDbBlockTableRecord
  2
_D_2
340
0
  0
ENDTAB
  0
ENDSEC
  0
SECTION
  2
BLOCKS
  0
BLOCK
  5
20
330
1F
100
AcDbEntity
  8
0
100
AcDbBlockBegin
  2
*Model_Space
 70
     0
 10
0.0
 20
0.0
 30
0.0
  3
*Model_Space
  1

  0
ENDBLK
  5
21
330
1F
100
AcDbEntity
  8
0
100
AcDbBlockEnd
  0
BLOCK
  5
1C
330
1B
100
AcDbEntity
 67
     1
  8
0
100
AcDbBlockBegin
  2
*Paper_Space
 70
     0
 10
0.0
 20
0.0
 30
0.0
  3
*Paper_Space
  1

  0
ENDBLK
  5
1D
330
1B
100
AcDbEntity
 67
     1
  8
0
100
AcDbBlockEnd
  0
BLOCK
  5
24
330
23
100
AcDbEntity
  8
0
100
AcDbBlockBegin
  2
*Paper_Space0
 70
     0
 10
0.0
 20
0.0
 30
0.0
  3
*Paper_Space0
  1

  0
ENDBLK
  5
25
330
23
100
AcDbEntity
  8
0
100
AcDbBlockEnd
  0
BLOCK
  5
D2
330
D1
100
AcDbEntity
  8
0
100
AcDbBlockBegin
  2
SW_NOTE_0
 70
     0
 10
0.0
 20
0.0
 30
0.0
  3
SW_NOTE_0
  1

  0
MTEXT
  5
D4
330
D1
100
AcDbEntity
  8
0
  6
Continuous
 62
     0
370
     0
100
AcDbMText
 10
0.0
 20
1.9336016097
 30
0.0
 40
1.5
 41
0.0
 71
     1
 72
     1
  1
DEBUR AND
  7
SLDTEXTSTYLE0
 73
     1
 44
1.0
  0
MTEXT
  5
D5
330
D1
100
AcDbEntity
  8
0
  6
Continuous
 62
     0
370
     0
100
AcDbMText
 10
0.0
 20
-0.5663983345
 30
0.0
 40
1.5
 41
0.0
 71
     1
 72
     1
  1
BREAK SHARP
  7
SLDTEXTSTYLE0
 73
     1
 44
1.0
  0
MTEXT
  5
D6
330
D1
100
AcDbEntity
  8
0
  6
Continuous
 62
     0
370
     0
100
AcDbMText
 10
0.0
 20
-3.0663982786
 30
0.0
 40
1.5
 41
0.0
 71
     1
 72
     1
  1
EDGES
  7
SLDTEXTSTYLE0
 73
     1
 44
1.0
  0
ENDBLK
  5
D3
330
D1
100
AcDbEntity
  8
0
100
AcDbBlockEnd
  0
BLOCK
  5
DA
330
D9
100
AcDbEntity
  8
0
100
AcDbBlockBegin
  2
SW_NOTE_1
 70
     0
 10
0.0
 20
0.0
 30
0.0
  3
SW_NOTE_1
  1

  0
MTEXT
  5
DC
330
D9
100
AcDbEntity
  8
0
  6
Continuous
 62
     0
370
     0
100
AcDbMText
 10
0.0
 20
1.9336016097
 30
0.0
 40
1.5
 41
0.0
 71
     1
 72
     1
  1
UNLESS OTHERWISE SPECIFIED:
  7
SLDTEXTSTYLE0
 73
     1
 44
1.0
  0
MTEXT
  5
DD
330
D9
100
AcDbEntity
  8
0
  6
Continuous
 62
     0
370
     0
100
AcDbMText
 10
0.0
 20
-0.5663983345
 30
0.0
 40
1.5
 41
0.0
 71
     1
 72
     1
  1
DIMENSIONS ARE IN MILLIMETERS
  7
SLDTEXTSTYLE0
 73
     1
 44
1.0
  0
MTEXT
  5
DE
330
D9
100
AcDbEntity
  8
0
  6
Continuous
 62
     0
370
     0
100
AcDbMText
 10
0.0
 20
-3.0663982786
 30
0.0
 40
1.5
 41
0.0
 71
     1
 72
     1
  1
SURFACE FINISH:
  7
SLDTEXTSTYLE0
 73
     1
 44
1.0
  0
MTEXT
  5
DF
330
D9
100
AcDbEntity
  8
0
  6
Continuous
 62
     0
370
     0
100
AcDbMText
 10
0.0
 20
-5.5663982227
 30
0.0
 40
1.5
 41
0.0
 71
     1
 72
     1
  1
TOLERANCES:
  7
SLDTEXTSTYLE0
 73
     1
 44
1.0
  0
MTEXT
  5
E0
330
D9
100
AcDbEntity
  8
0
  6
Continuous
 62
     0
370
     0
100
AcDbMText
 10
1.6875
 20
-8.0663981668
 30
0.0
 40
1.5
 41
0.0
 71
     1
 72
     1
  1
LINEAR:
  7
SLDTEXTSTYLE0
 73
     1
 44
1.0
  0
MTEXT
  5
E1
330
D9
100
AcDbEntity
  8
0
  6
Continuous
 62
     0
370
     0
100
AcDbMText
 10
1.6875
 20
-10.5663981109
 30
0.0
 40
1.5
 41
0.0
 71
     1
 72
     1
  1
ANGULAR:
  7
SLDTEXTSTYLE0
 73
     1
 44
1.0
  0
ENDBLK
  5
DB
330
D9
100
AcDbEntity
  8
0
100
AcDbBlockEnd
  0
BLOCK
  5
E9
330
E8
100
AcDbEntity
  8
0
100
AcDbBlockBegin
  2
SW_NOTE_2
 70
     0
 10
0.0
 20
0.0
 30
0.0
  3
SW_NOTE_2
  1

  0
LINE
  5
EB
330
E8
100
AcDbEntity
  8
FORMAT
 62
     0
100
AcDbLine
 10
-0.0524260496
 20
-5.7166418029
 30
0.0
 11
-0.0524260496
 21
5.6386695524
 31
0.0
  0
LINE
  5
EC
330
E8
100
AcDbEntity
  8
FORMAT
 62
     0
100
AcDbLine
 10
-0.0524260496
 20
5.6386695524
 30
0.0
 11
121.0098450126
 21
5.6386695524
 31
0.0
  0
LINE
  5
ED
330
E8
100
AcDbEntity
  8
FORMAT
 62
     0
100
AcDbLine
 10
121.0098450126
 20
5.6386695524
 30
0.0
 11
121.0098450126
 21
-5.7166418029
 31
0.0
  0
LINE
  5
EE
330
E8
100
AcDbEntity
  8
FORMAT
 62
     0
100
AcDbLine
 10
121.0098450126
 20
-5.7166418029
 30
0.0
 11
-0.0524260496
 21
-5.7166418029
 31
0.0
  0
MTEXT
  5
EF
330
E8
100
AcDbEntity
  8
FORMAT
 62
     0
100
AcDbMText
 10
0.0
 20
5.4570534317
 30
0.0
 40
4.2333333333
 41
0.0
 71
     1
 72
     1
  1
FOR REFERENCE ONLY
  7
SLDTEXTSTYLE0
 73
     1
 44
1.0
  0
MTEXT
  5
F0
330
E8
100
AcDbEntity
  8
FORMAT
 62
     0
100
AcDbMText
 10
0.0
 20
-0.1873909445
 30
0.0
 40
4.2333333333
 41
0.0
 71
     1
 72
     1
  1
PRODUCTION ACCORDING TO 3D FILES ONLY
  7
SLDTEXTSTYLE0
 73
     1
 44
1.0
  0
ENDBLK
  5
EA
330
E8
100
AcDbEntity
  8
0
100
AcDbBlockEnd
  0
BLOCK
  5
30F
330
30E
100
AcDbEntity
  8
0
100
AcDbBlockBegin
  2
_D
 70
     0
 10
0.0
 20
0.0
 30
0.0
  3
_D
  1

  0
SOLID
  5
311
330
30E
100
AcDbEntity
  8
CENTER
100
AcDbTrace
 10
56.6599051521
 20
227.937749733
 30
0.0
 11
59.9619051521
 21
227.429749733
 31
0.0
 12
59.9619051521
 22
228.445749733
 32
0.0
 13
59.9619051521
 23
228.445749733
 33
0.0
  0
SOLID
  5
312
330
30E
100
AcDbEntity
  8
CENTER
100
AcDbTrace
 10
118.6564141392
 20
227.937749733
 30
0.0
 11
115.3544141392
 21
228.445749733
 31
0.0
 12
115.3544141392
 22
227.429749733
 32
0.0
 13
115.3544141392
 23
227.429749733
 33
0.0
  0
LINE
  5
313
330
30E
100
AcDbEntity
  8
CENTER
100
AcDbLine
 10
56.6599051521
 20
201.7280612919
 30
0.0
 11
56.6599051521
 21
228.937749733
 31
0.0
  0
LINE
  5
314
330
30E
100
AcDbEntity
  8
CENTER
100
AcDbLine
 10
118.6564141392
 20
201.7280612919
 30
0.0
 11
118.6564141392
 21
228.937749733
 31
0.0
  0
LINE
  5
315
330
30E
100
AcDbEntity
  8
CENTER
100
AcDbLine
 10
56.6599051521
 20
227.937749733
 30
0.0
 11
118.6564141392
 21
227.937749733
 31
0.0
  0
MTEXT
  5
316
330
30E
100
AcDbEntity
  8
CENTER
100
AcDbMText
 10
79.9875498479
 20
232.4494866476
 30
0.0
 40
3.5
 41
0.0
 71
     1
 72
     1
  1
62.00
  7
SLDTEXTSTYLE0
 73
     1
 44
1.0
  0
ENDBLK
  5
310
330
30E
100
AcDbEntity
  8
0
100
AcDbBlockEnd
  0
BLOCK
  5
319
330
318
100
AcDbEntity
  8
0
100
AcDbBlockBegin
  2
_D_1
 70
     0
 10
0.0
 20
0.0
 30
0.0
  3
_D_1
  1

  0
SOLID
  5
31B
330
318
100
AcDbEntity
  8
CENTER
100
AcDbTrace
 10
46.4496494581
 20
211.7263157854
 30
0.0
 11
45.9416494581
 21
208.4243157854
 31
0.0
 12
46.9576494581
 22
208.4243157854
 32
0.0
 13
46.9576494581
 23
208.4243157854
 33
0.0
  0
SOLID
  5
31C
330
318
100
AcDbEntity
  8
CENTER
100
AcDbTrace
 10
46.4496494581
 20
149.7298067984
 30
0.0
 11
46.9576494581
 21
153.0318067984
 31
0.0
 12
45.9416494581
 22
153.0318067984
 32
0.0
 13
45.9416494581
 23
153.0318067984
 33
0.0
  0
LINE
  5
31D
330
318
100
AcDbEntity
  8
CENTER
100
AcDbLine
 10
66.6581596456
 20
211.7263157854
 30
0.0
 11
45.4496494581
 21
211.7263157854
 31
0.0
  0
LINE
  5
31E
330
318
100
AcDbEntity
  8
CENTER
100
AcDbLine
 10
66.6581596456
 20
149.7298067984
 30
0.0
 11
45.4496494581
 21
149.7298067984
 31
0.0
  0
LINE
  5
31F
330
318
100
AcDbEntity
  8
CENTER
100
AcDbLine
 10
46.4496494581
 20
211.7263157854
 30
0.0
 11
46.4496494581
 21
149.7298067984
 31
0.0
  0
MTEXT
  5
320
330
318
100
AcDbEntity
  8
CENTER
100
AcDbMText
 10
41.9379125435
 20
178.7578843233
 30
0.0
 40
3.5
 41
0.0
 71
     1
 72
     1
  1
62.00
  7
SLDTEXTSTYLE0
 11
-7.044195017643634E-15
 21
1.0
 31
0.0
 73
     1
 44
1.0
  0
ENDBLK
  5
31A
330
318
100
AcDbEntity
  8
0
100
AcDbBlockEnd
  0
BLOCK
  5
379
330
378
100
AcDbEntity
  8
0
100
AcDbBlockBegin
  2
_D_2
 70
     0
 10
0.0
 20
0.0
 30
0.0
  3
_D_2
  1

  0
SOLID
  5
37B
330
378
100
AcDbEntity
  8
CENTER
100
AcDbTrace
 10
170.4620466655
 20
227.9377497331
 30
0.0
 11
173.7640466655
 21
227.4297497331
 31
0.0
 12
173.7640466655
 22
228.4457497331
 32
0.0
 13
173.7640466655
 23
228.4457497331
 33
0.0
  0
SOLID
  5
37C
330
378
100
AcDbEntity
  8
CENTER
100
AcDbTrace
 10
201.9620466655
 20
227.9377497331
 30
0.0
 11
198.6600466655
 21
228.4457497331
 31
0.0
 12
198.6600466655
 22
227.4297497331
 32
0.0
 13
198.6600466655
 23
227.4297497331
 33
0.0
  0
LINE
  5
37D
330
378
100
AcDbEntity
  8
CENTER
100
AcDbLine
 10
170.4620466655
 20
201.7280612919
 30
0.0
 11
170.4620466655
 21
228.9377497331
 31
0.0
  0
LINE
  5
37E
330
378
100
AcDbEntity
  8
CENTER
100
AcDbLine
 10
201.9620466655
 20
205.9048686244
 30
0.0
 11
201.9620466655
 21
228.9377497331
 31
0.0
  0
LINE
  5
37F
330
378
100
AcDbEntity
  8
CENTER
100
AcDbLine
 10
170.4620466655
 20
227.9377497331
 30
0.0
 11
201.9620466655
 21
227.9377497331
 31
0.0
  0
MTEXT
  5
380
330
378
100
AcDbEntity
  8
CENTER
100
AcDbMText
 10
181.1409516716
 20
232.4494866476
 30
0.0
 40
3.5
 41
0.0
 71
     1
 72
     1
  1
31.50
  7
SLDTEXTSTYLE0
 73
     1
 44
1.0
  0
ENDBLK
  5
37A
330
378
100
AcDbEntity
  8
0
100
AcDbBlockEnd
  0
ENDSEC
  0
SECTION
  2
ENTITIES
  0
LINE
  5
76
330
1F
100
AcDbEntity
  8
0
  6
Continuous
 62
     7
370
    18
100
AcDbLine
 10
227.8
 20
9.25
 30
0.0
 11
415.0
 21
9.25
 31
0.0
  0
LINE
  5
77
330
1F
100
AcDbEntity
  8
0
  6
Continuous
 62
     7
370
    18
100
AcDbLine
 10
326.6
 20
43.25
 30
0.0
 11
227.8
 21
43.25
 31
0.0
  0
LINE
  5
78
330
1F
100
AcDbEntity
  8
0
  6
Continuous
 62
     7
370
    18
100
AcDbLine
 10
227.8
 20
60.25
 30
0.0
 11
415.0
 21
60.25
 31
0.0
  0
LINE
  5
79
330
1F
100
AcDbEntity
  8
0
  6
Continuous
 62
     7
370
    18
100
AcDbLine
 10
410.0
 20
287.0
 30
0.0
 11
410.0
 21
60.25
 31
0.0
  0
LINE
  5
7A
330
1F
100
AcDbEntity
  8
0
  6
Continuous
 62
     7
370
    18
100
AcDbLine
 10
254.7909524338
 20
43.25
 30
0.0
 11
254.7909524338
 21
5.0
 31
0.0
  0
LINE
  5
7B
330
1F
100
AcDbEntity
  8
0
  6
Continuous
 62
     7
370
    18
100
AcDbLine
 10
326.6
 20
26.25
 30
0.0
 11
227.8
 21
26.25
 31
0.0
  0
LINE
  5
7C
330
1F
100
AcDbEntity
  8
0
  6
Continuous
 62
     7
370
    18
100
AcDbLine
 10
326.6
 20
30.5
 30
0.0
 11
227.8
 21
30.5
 31
0.0
  0
LINE
  5
7D
330
1F
100
AcDbEntity
  8
0
  6
Continuous
 62
     7
370
    18
100
AcDbLine
 10
326.6
 20
34.75
 30
0.0
 11
227.8
 21
34.75
 31
0.0
  0
LINE
  5
7E
330
1F
100
AcDbEntity
  8
0
  6
Continuous
 62
     7
370
    18
100
AcDbLine
 10
326.6
 20
39.0
 30
0.0
 11
227.8
 21
39.0
 31
0.0
  0
LINE
  5
7F
330
1F
100
AcDbEntity
  8
0
  6
Continuous
 62
     7
370
    18
100
AcDbLine
 10
282.4
 20
5.0
 30
0.0
 11
282.4
 21
43.25
 31
0.0
  0
LINE
  5
80
330
1F
100
AcDbEntity
  8
0
  6
Continuous
 62
     7
370
    18
100
AcDbLine
 10
227.8
 20
60.25
 30
0.0
 11
227.8
 21
5.0
 31
0.0
  0
LINE
  5
81
330
1F
100
AcDbEntity
  8
0
  6
Continuous
 62
     7
370
    18
100
AcDbLine
 10
235.6
 20
43.25
 30
0.0
 11
235.6
 21
5.0
 31
0.0
  0
LINE
  5
82
330
1F
100
AcDbEntity
  8
0
  6
Continuous
 62
     7
370
    18
100
AcDbLine
 10
261.6
 20
43.25
 30
0.0
 11
261.6
 21
60.25
 31
0.0
  0
LINE
  5
83
330
1F
100
AcDbEntity
  8
0
  6
Continuous
 62
     7
370
    18
100
AcDbLine
 10
272.1989261635
 20
43.25
 30
0.0
 11
272.1989261635
 21
5.0
 31
0.0
  0
LINE
  5
84
330
1F
100
AcDbEntity
  8
0
  6
Continuous
 62
     7
370
    18
100
AcDbLine
 10
292.8
 20
26.25
 30
0.0
 11
292.8
 21
43.25
 31
0.0
  0
LINE
  5
85
330
1F
100
AcDbEntity
  8
0
  6
Continuous
 62
     7
370
    18
100
AcDbLine
 10
282.4
 20
13.5
 30
0.0
 11
227.8
 21
13.5
 31
0.0
  0
LINE
  5
86
330
1F
100
AcDbEntity
  8
0
  6
Continuous
 62
     7
370
    18
100
AcDbLine
 10
308.4
 20
60.25
 30
0.0
 11
308.4
 21
22.0
 31
0.0
  0
LINE
  5
87
330
1F
100
AcDbEntity
  8
0
  6
Continuous
 62
     7
370
    18
100
AcDbLine
 10
282.4
 20
17.749928
 30
0.0
 11
227.8
 21
17.749928
 31
0.0
  0
LINE
  5
88
330
1F
100
AcDbEntity
  8
0
  6
Continuous
 62
     7
370
    18
100
AcDbLine
 10
282.4
 20
22.0
 30
0.0
 11
227.8
 21
22.0
 31
0.0
  0
LINE
  5
89
330
1F
100
AcDbEntity
  8
0
  6
Continuous
 62
     7
370
    18
100
AcDbLine
 10
282.4
 20
22.0
 30
0.0
 11
415.0
 21
22.0
 31
0.0
  0
LINE
  5
8A
330
1F
100
AcDbEntity
  8
0
  6
Continuous
 62
     7
370
    18
100
AcDbLine
 10
326.6
 20
60.25
 30
0.0
 11
326.6
 21
5.0
 31
0.0
  0
LINE
  5
8B
330
1F
100
AcDbEntity
  8
0
  6
Continuous
 62
     7
370
    18
100
AcDbLine
 10
370.8
 20
5.0
 30
0.0
 11
370.8
 21
9.25
 31
0.0
  0
LINE
  5
8C
330
1F
100
AcDbEntity
  8
0
  6
Continuous
 62
     7
370
    18
100
AcDbLine
 10
378.6
 20
53.875
 30
0.0
 11
378.6
 21
60.25
 31
0.0
  0
LINE
  5
8D
330
1F
100
AcDbEntity
  8
0
  6
Continuous
 62
     7
370
    18
100
AcDbLine
 10
402.0
 20
9.25
 30
0.0
 11
402.0
 21
22.0
 31
0.0
  0
LINE
  5
8E
330
1F
100
AcDbEntity
  8
0
  6
Continuous
 62
     7
370
    18
100
AcDbLine
 10
415.0
 20
53.875
 30
0.0
 11
326.6
 21
53.875
 31
0.0
  0
LINE
  5
8F
330
1F
100
AcDbEntity
  8
0
  6
Continuous
 62
     7
370
    18
100
AcDbLine
 10
415.0
 20
13.5
 30
0.0
 11
402.0
 21
13.5
 31
0.0
  0
LINE
  5
90
330
1F
100
AcDbEntity
  8
FORMAT
100
AcDbLine
 10
326.6
 20
30.5
 30
0.0
 11
415.0
 21
30.5
 31
0.0
  0
LINE
  5
91
330
1F
100
AcDbEntity
  8
0
  6
Continuous
 62
     7
370
    18
100
AcDbLine
 10
415.0
 20
292.0
 30
0.0
 11
5.0
 21
292.0
 31
0.0
  0
LINE
  5
92
330
1F
100
AcDbEntity
  8
0
  6
Continuous
 62
     7
370
    18
100
AcDbLine
 10
410.0
 20
287.0
 30
0.0
 11
10.0
 21
287.0
 31
0.0
  0
LINE
  5
93
330
1F
100
AcDbEntity
  8
0
  6
Continuous
 62
     7
370
    18
100
AcDbLine
 10
5.0
 20
292.0
 30
0.0
 11
5.0
 21
5.0
 31
0.0
  0
LINE
  5
94
330
1F
100
AcDbEntity
  8
0
  6
Continuous
 62
     7
370
    18
100
AcDbLine
 10
10.0
 20
287.0
 30
0.0
 11
10.0
 21
10.0
 31
0.0
  0
LINE
  5
95
330
1F
100
AcDbEntity
  8
0
  6
Continuous
 62
     7
370
    18
100
AcDbLine
 10
10.0
 20
48.5
 30
0.0
 11
5.0
 21
48.5
 31
0.0
  0
LINE
  5
96
330
1F
100
AcDbEntity
  8
0
  6
Continuous
 62
     7
370
    18
100
AcDbLine
 10
5.0
 20
98.5
 30
0.0
 11
10.0
 21
98.5
 31
0.0
  0
LINE
  5
97
330
1F
100
AcDbEntity
  8
0
  6
Continuous
 62
     7
370
    18
100
AcDbLine
 10
5.0
 20
198.5
 30
0.0
 11
10.0
 21
198.5
 31
0.0
  0
LINE
  5
98
330
1F
100
AcDbEntity
  8
0
  6
Continuous
 62
     7
370
    18
100
AcDbLine
 10
5.0
 20
148.5
 30
0.0
 11
15.0
 21
148.5
 31
0.0
  0
LINE
  5
99
330
1F
100
AcDbEntity
  8
0
  6
Continuous
 62
     7
370
    18
100
AcDbLine
 10
5.0
 20
5.0
 30
0.0
 11
415.0
 21
5.0
 31
0.0
  0
LINE
  5
9A
330
1F
100
AcDbEntity
  8
0
  6
Continuous
 62
     7
370
    18
100
AcDbLine
 10
10.0
 20
10.0
 30
0.0
 11
227.8
 21
10.0
 31
0.0
  0
LINE
  5
9B
330
1F
100
AcDbEntity
  8
0
  6
Continuous
 62
     7
370
    18
100
AcDbLine
 10
60.0
 20
5.0
 30
0.0
 11
60.0
 21
10.0
 31
0.0
  0
LINE
  5
9C
330
1F
100
AcDbEntity
  8
0
  6
Continuous
 62
     7
370
    18
100
AcDbLine
 10
110.0
 20
10.0
 30
0.0
 11
110.0
 21
5.0
 31
0.0
  0
LINE
  5
9D
330
1F
100
AcDbEntity
  8
0
  6
Continuous
 62
     7
370
    18
100
AcDbLine
 10
160.0
 20
5.0
 30
0.0
 11
160.0
 21
10.0
 31
0.0
  0
LINE
  5
9E
330
1F
100
AcDbEntity
  8
0
  6
Continuous
 62
     7
370
    18
100
AcDbLine
 10
10.0
 20
248.5
 30
0.0
 11
5.0
 21
248.5
 31
0.0
  0
LINE
  5
9F
330
1F
100
AcDbEntity
  8
0
  6
Continuous
 62
     7
370
    18
100
AcDbLine
 10
60.0
 20
287.0
 30
0.0
 11
60.0
 21
292.0
 31
0.0
  0
LINE
  5
A0
330
1F
100
AcDbEntity
  8
0
  6
Continuous
 62
     7
370
    18
100
AcDbLine
 10
110.0
 20
292.0
 30
0.0
 11
110.0
 21
287.0
 31
0.0
  0
LINE
  5
A1
330
1F
100
AcDbEntity
  8
0
  6
Continuous
 62
     7
370
    18
100
AcDbLine
 10
160.0
 20
287.0
 30
0.0
 11
160.0
 21
292.0
 31
0.0
  0
LINE
  5
A2
330
1F
100
AcDbEntity
  8
0
  6
Continuous
 62
     7
370
    18
100
AcDbLine
 10
260.0
 20
287.0
 30
0.0
 11
260.0
 21
292.0
 31
0.0
  0
LINE
  5
A3
330
1F
100
AcDbEntity
  8
0
  6
Continuous
 62
     7
370
    18
100
AcDbLine
 10
415.0
 20
5.0
 30
0.0
 11
415.0
 21
292.0
 31
0.0
  0
LINE
  5
A4
330
1F
100
AcDbEntity
  8
0
  6
Continuous
 62
     7
370
    18
100
AcDbLine
 10
210.0
 20
5.0
 30
0.0
 11
210.0
 21
15.0
 31
0.0
  0
LINE
  5
A5
330
1F
100
AcDbEntity
  8
0
  6
Continuous
 62
     7
370
    18
100
AcDbLine
 10
410.0
 20
198.5
 30
0.0
 11
415.0
 21
198.5
 31
0.0
  0
LINE
  5
A6
330
1F
100
AcDbEntity
  8
0
  6
Continuous
 62
     7
370
    18
100
AcDbLine
 10
410.0
 20
98.5
 30
0.0
 11
415.0
 21
98.5
 31
0.0
  0
LINE
  5
A7
330
1F
100
AcDbEntity
  8
0
  6
Continuous
 62
     7
370
    18
100
AcDbLine
 10
415.0
 20
148.5
 30
0.0
 11
405.0
 21
148.5
 31
0.0
  0
LINE
  5
A8
330
1F
100
AcDbEntity
  8
0
  6
Continuous
 62
     7
370
    18
100
AcDbLine
 10
310.0
 20
292.0
 30
0.0
 11
310.0
 21
287.0
 31
0.0
  0
LINE
  5
A9
330
1F
100
AcDbEntity
  8
0
  6
Continuous
 62
     7
370
    18
100
AcDbLine
 10
360.0
 20
287.0
 30
0.0
 11
360.0
 21
292.0
 31
0.0
  0
LINE
  5
AA
330
1F
100
AcDbEntity
  8
0
  6
Continuous
 62
     7
370
    18
100
AcDbLine
 10
210.0
 20
292.0
 30
0.0
 11
210.0
 21
282.0
 31
0.0
  0
LINE
  5
AB
330
1F
100
AcDbEntity
  8
0
  6
Continuous
 62
     7
370
    18
100
AcDbLine
 10
415.0
 20
248.5
 30
0.0
 11
410.0
 21
248.5
 31
0.0
  0
MTEXT
  5
AD
330
1F
100
AcDbEntity
  8
0
  6
Continuous
 62
     7
370
     0
100
AcDbMText
 10
6.6666666667
 20
124.6680204036
 30
0.0
 40
1.8520833333
 41
0.0
 71
     1
 72
     1
  1
D
  7
SLDTEXTSTYLE0
 73
     1
 44
1.0
  0
MTEXT
  5
AE
330
1F
100
AcDbEntity
  8
0
  6
Continuous
 62
     7
370
     0
100
AcDbMText
 10
6.6666666667
 20
74.6680204036
 30
0.0
 40
1.8520833333
 41
0.0
 71
     1
 72
     1
  1
E
  7
SLDTEXTSTYLE0
 73
     1
 44
1.0
  0
MTEXT
  5
AF
330
1F
100
AcDbEntity
  8
0
  6
Continuous
 62
     7
370
     0
100
AcDbMText
 10
6.6666666667
 20
24.6680204036
 30
0.0
 40
1.8520833333
 41
0.0
 71
     1
 72
     1
  1
F
  7
SLDTEXTSTYLE0
 73
     1
 44
1.0
  0
MTEXT
  5
B0
330
1F
100
AcDbEntity
  8
0
  6
Continuous
 62
     7
370
     0
100
AcDbMText
 10
6.6666666667
 20
174.6680204036
 30
0.0
 40
1.8520833333
 41
0.0
 71
     1
 72
     1
  1
C
  7
SLDTEXTSTYLE0
 73
     1
 44
1.0
  0
MTEXT
  5
B1
330
1F
100
AcDbEntity
  8
0
  6
Continuous
 62
     7
370
     0
100
AcDbMText
 10
34.5833333333
 20
8.6680244036
 30
0.0
 40
1.8520833333
 41
0.0
 71
     1
 72
     1
  1
1
  7
SLDTEXTSTYLE0
 73
     1
 44
1.0
  0
MTEXT
  5
B2
330
1F
100
AcDbEntity
  8
0
  6
Continuous
 62
     7
370
     0
100
AcDbMText
 10
84.1666666667
 20
8.6680244036
 30
0.0
 40
1.8520833333
 41
0.0
 71
     1
 72
     1
  1
2
  7
SLDTEXTSTYLE0
 73
     1
 44
1.0
  0
MTEXT
  5
B3
330
1F
100
AcDbEntity
  8
0
  6
Continuous
 62
     7
370
     0
100
AcDbMText
 10
134.1666666667
 20
8.6680244036
 30
0.0
 40
1.8520833333
 41
0.0
 71
     1
 72
     1
  1
3
  7
SLDTEXTSTYLE0
 73
     1
 44
1.0
  0
MTEXT
  5
B4
330
1F
100
AcDbEntity
  8
0
  6
Continuous
 62
     7
370
     0
100
AcDbMText
 10
184.1666666667
 20
8.6680244036
 30
0.0
 40
1.8520833333
 41
0.0
 71
     1
 72
     1
  1
4
  7
SLDTEXTSTYLE0
 73
     1
 44
1.0
  0
MTEXT
  5
B5
330
1F
100
AcDbEntity
  8
0
  6
Continuous
 62
     7
370
     0
100
AcDbMText
 10
6.6666666667
 20
224.6680204036
 30
0.0
 40
1.8520833333
 41
0.0
 71
     1
 72
     1
  1
B
  7
SLDTEXTSTYLE0
 73
     1
 44
1.0
  0
MTEXT
  5
B6
330
1F
100
AcDbEntity
  8
0
  6
Continuous
 62
     7
370
     0
100
AcDbMText
 10
6.6666666667
 20
274.6680204036
 30
0.0
 40
1.8520833333
 41
0.0
 71
     1
 72
     1
  1
A
  7
SLDTEXTSTYLE0
 73
     1
 44
1.0
  0
MTEXT
  5
B7
330
1F
100
AcDbEntity
  8
0
  6
Continuous
 62
     7
370
     0
100
AcDbMText
 10
134.1666666667
 20
290.6680244036
 30
0.0
 40
1.8520833333
 41
0.0
 71
     1
 72
     1
  1
3
  7
SLDTEXTSTYLE0
 73
     1
 44
1.0
  0
MTEXT
  5
B8
330
1F
100
AcDbEntity
  8
0
  6
Continuous
 62
     7
370
     0
100
AcDbMText
 10
84.1666666667
 20
290.6680244036
 30
0.0
 40
1.8520833333
 41
0.0
 71
     1
 72
     1
  1
2
  7
SLDTEXTSTYLE0
 73
     1
 44
1.0
  0
MTEXT
  5
B9
330
1F
100
AcDbEntity
  8
0
  6
Continuous
 62
     7
370
     0
100
AcDbMText
 10
34.5833333333
 20
290.6680244036
 30
0.0
 40
1.8520833333
 41
0.0
 71
     1
 72
     1
  1
1
  7
SLDTEXTSTYLE0
 73
     1
 44
1.0
  0
MTEXT
  5
BA
330
1F
100
AcDbEntity
  8
0
  6
Continuous
 62
     7
370
     0
100
AcDbMText
 10
234.1666666667
 20
290.6680244036
 30
0.0
 40
1.8520833333
 41
0.0
 71
     1
 72
     1
  1
5
  7
SLDTEXTSTYLE0
 73
     1
 44
1.0
  0
MTEXT
  5
BB
330
1F
100
AcDbEntity
  8
0
  6
Continuous
 62
     7
370
     0
100
AcDbMText
 10
411.6666666667
 20
174.6680204036
 30
0.0
 40
1.8520833333
 41
0.0
 71
     1
 72
     1
  1
C
  7
SLDTEXTSTYLE0
 73
     1
 44
1.0
  0
MTEXT
  5
BC
330
1F
100
AcDbEntity
  8
0
  6
Continuous
 62
     7
370
     0
100
AcDbMText
 10
411.6666666667
 20
124.6680204036
 30
0.0
 40
1.8520833333
 41
0.0
 71
     1
 72
     1
  1
D
  7
SLDTEXTSTYLE0
 73
     1
 44
1.0
  0
MTEXT
  5
BD
330
1F
100
AcDbEntity
  8
0
  6
Continuous
 62
     7
370
     0
100
AcDbMText
 10
184.1666666667
 20
290.6680244036
 30
0.0
 40
1.8520833333
 41
0.0
 71
     1
 72
     1
  1
4
  7
SLDTEXTSTYLE0
 73
     1
 44
1.0
  0
MTEXT
  5
BE
330
1F
100
AcDbEntity
  8
0
  6
Continuous
 62
     7
370
     0
100
AcDbMText
 10
284.1666666667
 20
290.6680244036
 30
0.0
 40
1.8520833333
 41
0.0
 71
     1
 72
     1
  1
6
  7
SLDTEXTSTYLE0
 73
     1
 44
1.0
  0
MTEXT
  5
BF
330
1F
100
AcDbEntity
  8
0
  6
Continuous
 62
     7
370
     0
100
AcDbMText
 10
334.1666666667
 20
290.6680244036
 30
0.0
 40
1.8520833333
 41
0.0
 71
     1
 72
     1
  1
7
  7
SLDTEXTSTYLE0
 73
     1
 44
1.0
  0
MTEXT
  5
C0
330
1F
100
AcDbEntity
  8
0
  6
Continuous
 62
     7
370
     0
100
AcDbMText
 10
384.1666666667
 20
290.6680244036
 30
0.0
 40
1.8520833333
 41
0.0
 71
     1
 72
     1
  1
8
  7
SLDTEXTSTYLE0
 73
     1
 44
1.0
  0
MTEXT
  5
C1
330
1F
100
AcDbEntity
  8
0
  6
Continuous
 62
     7
370
     0
100
AcDbMText
 10
411.6666666667
 20
274.6680204036
 30
0.0
 40
1.8520833333
 41
0.0
 71
     1
 72
     1
  1
A
  7
SLDTEXTSTYLE0
 73
     1
 44
1.0
  0
MTEXT
  5
C2
330
1F
100
AcDbEntity
  8
0
  6
Continuous
 62
     7
370
     0
100
AcDbMText
 10
411.6666666667
 20
224.6680204036
 30
0.0
 40
1.8520833333
 41
0.0
 71
     1
 72
     1
  1
B
  7
SLDTEXTSTYLE0
 73
     1
 44
1.0
  0
MTEXT
  5
C3
330
1F
100
AcDbEntity
  8
0
  6
Continuous
 62
     7
370
     0
100
AcDbMText
 10
366.4975941877
 20
16.8537030472
 30
0.0
 40
4.2333333333
 41
0.0
 71
     2
 72
     1
  1
CP-Assy-05
  7
SLDTEXTSTYLE0
 73
     1
 44
1.0
  0
MTEXT
  5
C4
330
1F
100
AcDbEntity
  8
0
  6
Continuous
 62
     7
370
     0
100
AcDbMText
 10
283.4178111281
 20
7.9493119036
 30
0.0
 40
1.4986
 41
0.0
 71
     1
 72
     1
  1
WEIGHT:
  7
SLDTEXTSTYLE0
 73
     1
 44
1.0
  0
MTEXT
  5
C5
330
1F
100
AcDbEntity
  8
0
  6
Continuous
 62
     7
370
     0
100
AcDbMText
 10
405.9209848464
 20
19.3004445111
 30
0.0
 40
2.9104166667
 41
0.0
 71
     1
 72
     1
  1
A3
  7
SLDTEXTSTYLE0
 73
     1
 44
1.0
  0
MTEXT
  5
C7
330
1F
100
AcDbEntity
  8
0
  6
Continuous
 62
     7
370
     0
100
AcDbMText
 10
372.2782944278
 20
7.9000872745
 30
0.0
 40
1.5
 41
0.0
 71
     1
 72
     1
  1
SHEET 1 OF 1
  7
SLDTEXTSTYLE1
 73
     1
 44
1.0
  0
MTEXT
  5
C8
330
1F
100
AcDbEntity
  8
0
  6
Continuous
 62
     7
370
     0
100
AcDbMText
 10
327.8739661175
 20
7.9000872745
 30
0.0
 40
1.5
 41
0.0
 71
     1
 72
     1
  1
SCALE:1:1
  7
SLDTEXTSTYLE0
 73
     1
 44
1.0
  0
MTEXT
  5
C9
330
1F
100
AcDbEntity
  8
0
  6
Continuous
 62
     7
370
     0
100
AcDbMText
 10
327.8739661175
 20
19.868637827
 30
0.0
 40
1.5
 41
0.0
 71
     1
 72
     1
  1
DWG NO.
  7
SLDTEXTSTYLE0
 73
     1
 44
1.0
  0
MTEXT
  5
CA
330
1F
100
AcDbEntity
  8
0
  6
Continuous
 62
     7
370
     0
100
AcDbMText
 10
327.8704478884
 20
29.0524124537
 30
0.0
 40
1.5
 41
0.0
 71
     1
 72
     1
  1
TITLE:
  7
SLDTEXTSTYLE0
 73
     1
 44
1.0
  0
MTEXT
  5
CB
330
1F
100
AcDbEntity
  8
0
  6
Continuous
 62
     7
370
     0
100
AcDbMText
 10
381.1275816993
 20
57.3349086805
 30
0.0
 40
1.5
 41
0.0
 71
     1
 72
     1
  1
REVISION
  7
SLDTEXTSTYLE0
 73
     1
 44
1.0
  0
MTEXT
  5
CC
330
1F
100
AcDbEntity
  8
0
  6
Continuous
 62
     7
370
     0
100
AcDbMText
 10
340.4146405229
 20
57.5329935751
 30
0.0
 40
1.5
 41
0.0
 71
     1
 72
     1
  1
DO NOT SCALE DRAWING
  7
SLDTEXTSTYLE0
 73
     1
 44
1.0
  0
MTEXT
  5
CD
330
1F
100
AcDbEntity
  8
0
  6
Continuous
 62
     7
370
     0
100
AcDbMText
 10
283.4458623088
 20
20.9860562892
 30
0.0
 40
1.5
 41
0.0
 71
     1
 72
     1
  1
MATERIAL:
  7
SLDTEXTSTYLE0
 73
     1
 44
1.0
  0
MTEXT
  5
CE
330
1F
100
AcDbEntity
  8
0
  6
Continuous
 62
     7
370
     0
100
AcDbMText
 10
275.0147019657
 20
41.5761792212
 30
0.0
 40
1.5
 41
0.0
 71
     1
 72
     1
  1
DATE
  7
SLDTEXTSTYLE0
 73
     1
 44
1.0
  0
MTEXT
  5
CF
330
1F
100
AcDbEntity
  8
0
  6
Continuous
 62
     7
370
     0
100
AcDbMText
 10
257.8335875632
 20
41.5617563795
 30
0.0
 40
1.5
 41
0.0
 71
     1
 72
     1
  1
SIGNATURE
  7
SLDTEXTSTYLE0
 73
     1
 44
1.0
  0
MTEXT
  5
D0
330
1F
100
AcDbEntity
  8
0
  6
Continuous
 62
     7
370
     0
100
AcDbMText
 10
242.1222392177
 20
41.5014826335
 30
0.0
 40
1.5
 41
0.0
 71
     1
 72
     1
  1
NAME
  7
SLDTEXTSTYLE0
 73
     1
 44
1.0
  0
INSERT
  5
D7
330
1F
100
AcDbEntity
  8
0
  6
Continuous
 62
     7
370
     0
100
AcDbBlockReference
  2
SW_NOTE_0
 10
309.1092156863
 20
57.069489643
 30
0.0
  0
MTEXT
  5
D8
330
1F
100
AcDbEntity
  8
0
  6
Continuous
 62
     7
370
     0
100
AcDbMText
 10
262.1712921668
 20
58.9192719951
 30
0.0
 40
1.5
 41
0.0
 71
     1
 72
     1
  1
FINISH:
  7
SLDTEXTSTYLE0
 73
     1
 44
1.0
  0
INSERT
  5
E2
330
1F
100
AcDbEntity
  8
0
  6
Continuous
 62
     7
370
     0
100
AcDbBlockReference
  2
SW_NOTE_1
 10
228.3936687456
 20
56.9873698743
 30
0.0
  0
MTEXT
  5
E3
330
1F
100
AcDbEntity
  8
0
  6
Continuous
 62
     7
370
     0
100
AcDbMText
 10
228.4690428622
 20
20.3496492073
 30
0.0
 40
1.5
 41
0.0
 71
     1
 72
     1
  1
Q.A
  7
SLDTEXTSTYLE0
 73
     1
 44
1.0
  0
MTEXT
  5
E4
330
1F
100
AcDbEntity
  8
0
  6
Continuous
 62
     7
370
     0
100
AcDbMText
 10
228.2551864991
 20
24.7337046506
 30
0.0
 40
1.5
 41
0.0
 71
     1
 72
     1
  1
MFG
  7
SLDTEXTSTYLE0
 73
     1
 44
1.0
  0
MTEXT
  5
E5
330
1F
100
AcDbEntity
  8
0
  6
Continuous
 62
     7
370
     0
100
AcDbMText
 10
228.2017224083
 20
29.0642960031
 30
0.0
 40
1.5
 41
0.0
 71
     1
 72
     1
  1
APPV'D
  7
SLDTEXTSTYLE0
 73
     1
 44
1.0
  0
MTEXT
  5
E6
330
1F
100
AcDbEntity
  8
0
  6
Continuous
 62
     7
370
     0
100
AcDbMText
 10
228.2104688676
 20
33.15440716
 30
0.0
 40
1.5
 41
0.0
 71
     1
 72
     1
  1
CHK'D
  7
SLDTEXTSTYLE0
 73
     1
 44
1.0
  0
MTEXT
  5
E7
330
1F
100
AcDbEntity
  8
0
  6
Continuous
 62
     7
370
     0
100
AcDbMText
 10
228.0121492441
 20
37.4297148859
 30
0.0
 40
1.5
 41
0.0
 71
     1
 72
     1
  1
DRAWN
  7
SLDTEXTSTYLE0
 73
     1
 44
1.0
  0
INSERT
  5
F1
330
1F
100
AcDbEntity
  8
FORMAT
 62
     1
100
AcDbBlockReference
  2
SW_NOTE_2
 10
11.9571879544
 20
279.3430154293
 30
0.0
  0
LINE
  5
F2
330
1F
100
AcDbEntity
  8
0
  6
Continuous
 62
     7
370
    25
100
AcDbLine
 10
340.9007689256
 20
87.4930434649
 30
0.0
 11
340.9568270377
 21
87.6826456232
 31
0.0
  0
LINE
  5
F3
330
1F
100
AcDbEntity
  8
0
  6
Continuous
 62
     7
370
    25
100
AcDbLine
 10
334.230022076
 20
89.6853483728
 30
0.0
 11
334.4676047647
 21
90.4889107628
 31
0.0
  0
LINE
  5
F4
330
1F
100
AcDbEntity
  8
0
  6
Continuous
 62
     7
370
    25
100
AcDbLine
 10
347.7240702147
 20
110.8532449533
 30
0.0
 11
347.6990098524
 21
111.5861742705
 31
0.0
  0
LINE
  5
F5
330
1F
100
AcDbEntity
  8
0
  6
Continuous
 62
     7
370
    25
100
AcDbLine
 10
332.9457770952
 20
111.4042759694
 30
0.0
 11
332.9387947407
 21
110.6709515852
 31
0.0
  0
LINE
  5
F6
330
1F
100
AcDbEntity
  8
0
  6
Continuous
 62
     7
370
    25
100
AcDbLine
 10
346.0726758123
 20
111.5077711144
 30
0.0
 11
346.070706216
 21
111.667519242
 31
0.0
  0
LINE
  5
F7
330
1F
100
AcDbEntity
  8
0
  6
Continuous
 62
     7
370
    25
100
AcDbLine
 10
334.5715801955
 20
111.5257420789
 30
0.0
 11
334.5735497918
 21
111.3659939513
 31
0.0
  0
SPLINE
  5
F8
330
1F
100
AcDbEntity
  8
0
  6
Continuous
 62
     7
370
    25
100
AcDbSpline
210
0.0
220
0.0
230
1.0
 70
     8
 71
     3
 72
    23
 73
    19
 74
     0
 42
0.000000001
 43
0.00000001
 40
0.0
 40
0.0
 40
0.0
 40
0.0
 40
0.0345328364628535
 40
0.0992125794296772
 40
0.1639810619985259
 40
0.2288025722754507
 40
0.2935967465767281
 40
0.3583384254986106
 40
0.4230227445333533
 40
0.4876566704832955
 40
0.5522536528579859
 40
0.6168305329239858
 40
0.6814058672713064
 40
0.745995932267757
 40
0.8106170514220585
 40
0.8752887581545697
 40
0.9400295238393581
 40
1.0
 40
1.0
 40
1.0
 40
1.0
 10
331.6504720989752
 20
78.31497560068041
 30
0.0
 10
331.7476908341405
 20
78.23454418852796
 30
0.0
 10
332.0269995290692
 20
78.00346534635405
 30
0.0
 10
332.5427015869576
 20
77.65127023457626
 30
0.0
 10
333.2132831922418
 20
77.2743364512535
 30
0.0
 10
333.9423205738055
 20
76.94276073006299
 30
0.0
 10
334.721032082258
 20
76.65885426995706
 30
0.0
 10
335.5417378782817
 20
76.42525697174295
 30
0.0
 10
336.3961776218585
 20
76.2438595503586
 30
0.0
 10
337.2760058018267
 20
76.11614792989245
 30
0.0
 10
338.1726813182423
 20
76.04314130001416
 30
0.0
 10
339.0775474453823
 20
76.02542124078482
 30
0.0
 10
339.9819061451327
 20
76.06309067798125
 30
0.0
 10
340.8769549073193
 20
76.15589829484657
 30
0.0
 10
341.7543901806425
 20
76.30277332836984
 30
0.0
 10
342.6045893425672
 20
76.50360558967262
 30
0.0
 10
343.403325121604
 20
76.74647578974484
 30
0.0
 10
343.894419049613
 20
76.94422024414601
 30
0.0
 10
344.1305736758239
 20
77.03931054164512
 30
0.0
  0
LINE
  5
F9
330
1F
100
AcDbEntity
  8
0
  6
Continuous
 62
     7
370
    25
100
AcDbLine
 10
344.1305736758
 20
77.0393105416
 30
0.0
 11
346.2640003987
 21
77.9494874543
 31
0.0
  0
LINE
  5
FA
330
1F
100
AcDbEntity
  8
0
  6
Continuous
 62
     7
370
    25
100
AcDbLine
 10
330.1255556358
 20
79.6211553904
 30
0.0
 11
331.650472099
 21
78.3149756007
 31
0.0
  0
LINE
  5
FB
330
1F
100
AcDbEntity
  8
0
  6
Continuous
 62
     7
370
    25
100
AcDbLine
 10
348.7248951766
 20
104.7781309685
 30
0.0
 11
348.714042582
 21
105.095531996
 31
0.0
  0
LINE
  5
FC
330
1F
100
AcDbEntity
  8
0
  6
Continuous
 62
     7
370
    25
100
AcDbLine
 10
345.6417008075
 20
106.0503347525
 30
0.0
 11
345.6386770419
 21
105.732762638
 31
0.0
  0
LINE
  5
FD
330
1F
100
AcDbEntity
  8
0
  6
Continuous
 62
     7
370
    25
100
AcDbLine
 10
328.6886532367
 20
106.8807520198
 30
0.0
 11
328.6856294711
 21
106.5631799053
 31
0.0
  0
LINE
  5
FE
330
1F
100
AcDbEntity
  8
0
  6
Continuous
 62
     7
370
    25
100
AcDbLine
 10
332.2708232359
 20
107.2874320212
 30
0.0
 11
332.2599706413
 21
107.6048330487
 31
0.0
  0
LINE
  5
FF
330
1F
100
AcDbEntity
  8
0
  6
Continuous
 62
     7
370
    25
100
AcDbLine
 10
341.2986453526
 20
117.9619428795
 30
0.0
 11
341.295621587
 21
117.6443707649
 31
0.0
  0
LINE
  5
100
330
1F
100
AcDbEntity
  8
0
  6
Continuous
 62
     7
370
    25
100
AcDbLine
 10
343.5974181478
 20
118.702676499
 30
0.0
 11
343.5813406808
 21
119.1728870551
 31
0.0
  0
LINE
  5
101
330
1F
100
AcDbEntity
  8
0
  6
Continuous
 62
     7
370
    25
100
AcDbLine
 10
333.6342479955
 20
89.4793563858
 30
0.0
 11
333.8234257115
 21
90.1158752474
 31
0.0
  0
SPLINE
  5
102
330
1F
100
AcDbEntity
  8
0
  6
Continuous
 62
     7
370
    25
100
AcDbSpline
210
0.0
220
0.0
230
1.0
 70
     8
 71
     3
 72
    14
 73
    10
 74
     0
 42
0.000000001
 43
0.00000001
 40
0.0
 40
0.0
 40
0.0
 40
0.0
 40
0.1177785520079743
 40
0.2684788081151042
 40
0.4196166120656216
 40
0.571751360974514
 40
0.7251636190355318
 40
0.8798379934031
 40
1.0
 40
1.0
 40
1.0
 40
1.0
 10
382.2962058227177
 20
119.9035953936348
 30
0.0
 10
382.2881871943285
 20
120.0638059173456
 30
0.0
 10
382.2699085539823
 20
120.4290093412294
 30
0.0
 10
382.1351199616718
 20
120.9921956799357
 30
0.0
 10
381.9124342835506
 20
121.5872076686684
 30
0.0
 10
381.6011060655848
 20
122.1654827943171
 30
0.0
 10
381.2050355620692
 20
122.7223415847964
 30
0.0
 10
380.767653733038
 20
123.2152685015786
 30
0.0
 10
380.4390892205133
 20
123.5096938752298
 30
0.0
 10
380.295436582595
 20
123.6384204418031
 30
0.0
  0
LINE
  5
103
330
1F
100
AcDbEntity
  8
0
  6
Continuous
 62
     7
370
    25
100
AcDbLine
 10
382.6975443174
 20
108.3915103191
 30
0.0
 11
382.3042075613
 21
119.895256217
 31
0.0
  0
SPLINE
  5
104
330
1F
100
AcDbEntity
  8
0
  6
Continuous
 62
     7
370
    25
100
AcDbSpline
210
0.0
220
0.0
230
1.0
 70
     8
 71
     3
 72
    19
 73
    15
 74
     0
 42
0.000000001
 43
0.00000001
 40
0.0
 40
0.0
 40
0.0
 40
0.0
 40
0.0499008123823775
 40
0.1444106303639855
 40
0.2390403565477729
 40
0.3337324496881591
 40
0.4283831889784101
 40
0.5228525872771169
 40
0.6169465974467851
 40
0.710441752009742
 40
0.8031479054777964
 40
0.8949954435838201
 40
0.9861024732799254
 40
1.0
 40
1.0
 40
1.0
 40
1.0
 10
309.8322275320167
 20
130.7106716510442
 30
0.0
 10
309.6898215007504
 20
130.6480079296242
 30
0.0
 10
309.2777050689532
 20
130.4666620340527
 30
0.0
 10
308.6363329879489
 20
130.1315916909985
 30
0.0
 10
307.9328755476724
 20
129.6936777741834
 30
0.0
 10
307.2961993799004
 20
129.2153356144844
 30
0.0
 10
306.7315565119058
 20
128.7010154158768
 30
0.0
 10
306.2449049489423
 20
128.154726985484
 30
0.0
 10
305.8410407366996
 20
127.5814582819854
 30
0.0
 10
305.5249983997778
 20
126.9869439436815
 30
0.0
 10
305.2967392704538
 20
126.3774202788107
 30
0.0
 10
305.168816299216
 20
125.7598722582928
 30
0.0
 10
305.1196845521389
 20
125.3132144881123
 30
0.0
 10
305.1401001570928
 20
125.0761146360687
 30
0.0
 10
305.142802196176
 20
125.0447340784856
 30
0.0
  0
LINE
  5
105
330
1F
100
AcDbEntity
  8
0
  6
Continuous
 62
     7
370
    25
100
AcDbLine
 10
305.1356671307
 20
125.1964948148
 30
0.0
 11
305.0260750735
 21
113.6865481134
 31
0.0
  0
LINE
  5
106
330
1F
100
AcDbEntity
  8
0
  6
Continuous
 62
     7
370
    25
100
AcDbLine
 10
380.2954365826
 20
123.6384204418
 30
0.0
 11
357.4459266232
 21
143.2103568957
 31
0.0
  0
LINE
  5
107
330
1F
100
AcDbEntity
  8
0
  6
Continuous
 62
     7
370
    25
100
AcDbLine
 10
342.6612500917
 20
144.716410905
 30
0.0
 11
309.832227532
 21
130.710671651
 31
0.0
  0
SPLINE
  5
108
330
1F
100
AcDbEntity
  8
0
  6
Continuous
 62
     7
370
    25
100
AcDbSpline
210
0.0
220
0.0
230
1.0
 70
     8
 71
     3
 72
    25
 73
    21
 74
     0
 42
0.000000001
 43
0.00000001
 40
0.0
 40
0.0
 40
0.0
 40
0.0
 40
0.0315845622811103
 40
0.0908925935266787
 40
0.1502651163192111
 40
0.2096812735738042
 40
0.269081833885075
 40
0.328446427096723
 40
0.3877685795040926
 40
0.4470504156494608
 40
0.5062990878245719
 40
0.565524560522419
 40
0.6247383166608317
 40
0.6839526340055878
 40
0.7431775942888306
 40
0.8024243668027825
 40
0.8617056306219986
 40
0.9210334614622039
 40
0.9804184688284586
 40
1.0
 40
1.0
 40
1.0
 40
1.0
 10
357.4459266231627
 20
143.2103568957135
 30
0.0
 10
357.3411805805908
 20
143.2972679441165
 30
0.0
 10
357.0397472605313
 20
143.5473765422718
 30
0.0
 10
356.4870854367056
 20
143.9318696130266
 30
0.0
 10
355.7713759178468
 20
144.3482520469277
 30
0.0
 10
354.9955958388804
 20
144.7204128103129
 30
0.0
 10
354.1677613696139
 20
145.0461265837706
 30
0.0
 10
353.2947510733772
 20
145.3227705591611
 30
0.0
 10
352.3840383144191
 20
145.5483876909678
 30
0.0
 10
351.4431882849971
 20
145.7213611016343
 30
0.0
 10
350.479976912853
 20
145.840475187572
 30
0.0
 10
349.5023129700401
 20
145.904896525902
 30
0.0
 10
348.5181995988468
 20
145.9141833742275
 30
0.0
 10
347.5356968716522
 20
145.8682826302571
 30
0.0
 10
346.5628365297242
 20
145.7675499205226
 30
0.0
 10
345.6076295331836
 20
145.6126804500523
 30
0.0
 10
344.6776959692599
 20
145.4049321578032
 30
0.0
 10
343.7813249792414
 20
145.1452133489403
 30
0.0
 10
343.115304201451
 20
144.9062831457609
 30
0.0
 10
342.7514707802698
 20
144.7541385765102
 30
0.0
 10
342.6612500917348
 20
144.7164109050112
 30
0.0
  0
LINE
  5
109
330
1F
100
AcDbEntity
  8
0
  6
Continuous
 62
     7
370
    25
100
AcDbLine
 10
346.9705451893
 20
77.4452044252
 30
0.0
 11
377.8954445838
 21
90.6385937985
 31
0.0
  0
LINE
  5
10A
330
1F
100
AcDbEntity
  8
0
  6
Continuous
 62
     7
370
    25
100
AcDbLine
 10
307.4443839383
 20
97.7096305285
 30
0.0
 11
328.9692841798
 21
79.2722994675
 31
0.0
  0
LINE
  5
10B
330
1F
100
AcDbEntity
  8
0
  6
Continuous
 62
     7
370
    25
100
AcDbLine
 10
382.5882635151
 20
96.1484616953
 30
0.0
 11
382.7016585475
 21
108.0578172875
 31
0.0
  0
SPLINE
  5
10C
330
1F
100
AcDbEntity
  8
0
  6
Continuous
 62
     7
370
    25
100
AcDbSpline
210
0.0
220
0.0
230
1.0
 70
     8
 71
     3
 72
    18
 73
    14
 74
     0
 42
0.000000001
 43
0.00000001
 40
0.0
 40
0.0
 40
0.0
 40
0.0
 40
0.0509523561832108
 40
0.1474535026535244
 40
0.2440772282329315
 40
0.3407646833627563
 40
0.4374096970757693
 40
0.5338690395210869
 40
0.6299441668861288
 40
0.7254065440031469
 40
0.8200619506286868
 40
0.9138397381437258
 40
1.0
 40
1.0
 40
1.0
 40
1.0
 10
377.8954445838316
 20
90.63859379847479
 30
0.0
 10
378.0377941194989
 20
90.70123348242134
 30
0.0
 10
378.4497463668057
 20
90.88250951153799
 30
0.0
 10
379.0908467401467
 20
91.21746578133602
 30
0.0
 10
379.793976433565
 20
91.65524507393354
 30
0.0
 10
380.4303256130829
 20
92.13345283328641
 30
0.0
 10
380.9946090379652
 20
92.64763632482186
 30
0.0
 10
381.4809793780502
 20
93.19378494266175
 30
0.0
 10
381.8842190010919
 20
93.76689885787208
 30
0.0
 10
382.2008481847881
 20
94.36126747773827
 30
0.0
 10
382.425171480412
 20
94.97054199776751
 30
0.0
 10
382.5623459488003
 20
95.57307309945736
 30
0.0
 10
382.5778501349687
 20
95.97205970829734
 30
0.0
 10
382.5852740497261
 20
96.16310763181828
 30
0.0
  0
LINE
  5
10D
330
1F
100
AcDbEntity
  8
0
  6
Continuous
 62
     7
370
    25
100
AcDbLine
 10
305.0301893037
 20
113.3528550817
 30
0.0
 11
305.4371753147
 21
101.4499154683
 31
0.0
  0
SPLINE
  5
10E
330
1F
100
AcDbEntity
  8
0
  6
Continuous
 62
     7
370
    25
100
AcDbSpline
210
0.0
220
0.0
230
1.0
 70
     8
 71
     3
 72
    14
 73
    10
 74
     0
 42
0.000000001
 43
0.00000001
 40
0.0
 40
0.0
 40
0.0
 40
0.0
 40
0.1320402706984944
 40
0.280479846791407
 40
0.4293538035258954
 40
0.5792128516051347
 40
0.7303322403079003
 40
0.8826954063091602
 40
1.0
 40
1.0
 40
1.0
 40
1.0
 10
305.4401024921422
 20
101.5051359984843
 30
0.0
 10
305.4490056052494
 20
101.322837885273
 30
0.0
 10
305.4679175916235
 20
100.9356003660422
 30
0.0
 10
305.6066903120308
 20
100.3507290647977
 30
0.0
 10
305.8301957481506
 20
99.75605370776522
 30
0.0
 10
306.1417638870326
 20
99.17809934939683
 30
0.0
 10
306.538209644214
 20
98.62159602987424
 30
0.0
 10
306.9748007584032
 20
98.13026981673234
 30
0.0
 10
307.3020371694622
 20
97.8371407249721
 30
0.0
 10
307.4443839382563
 20
97.70963052854684
 30
0.0
  0
LINE
  5
10F
330
1F
100
AcDbEntity
  8
0
  6
Continuous
 62
     7
370
    25
100
AcDbLine
 10
340.9095323629
 20
88.3578529637
 30
0.0
 11
340.918592506
 21
87.6230115765
 31
0.0
  0
LINE
  5
110
330
1F
100
AcDbEntity
  8
0
  6
Continuous
 62
     7
370
    25
100
AcDbLine
 10
333.6580782279
 20
89.5595370366
 30
0.0
 11
333.7055640326
 21
89.5822761936
 31
0.0
  0
ARC
  5
111
330
1F
100
AcDbEntity
  8
0
  6
Continuous
 62
     7
370
    25
100
AcDbCircle
 10
333.6267377945
 20
89.7671928988
 30
0.0
 40
0.2010168243648335
100
AcDbArc
 50
293.0875673986
 51
359.4920930434
  0
LINE
  5
112
330
1F
100
AcDbEntity
  8
0
  6
Continuous
 62
     7
370
    25
100
AcDbLine
 10
333.8277467208
 20
89.7654109786
 30
0.0
 11
333.8208721313
 21
90.3229885838
 31
0.0
  0
LWPOLYLINE
  5
113
330
1F
100
AcDbEntity
  8
0
  6
Continuous
 62
     7
370
    25
100
AcDbPolyline
 90
        3
 70
   128
 43
0.0
 10
333.8208721313
 20
90.3229885838
 10
333.8327680871
 20
90.4307509325
 10
333.8386957116
 20
90.4529566955
  0
LINE
  5
114
330
1F
100
AcDbEntity
  8
0
  6
Continuous
 62
     7
370
    25
100
AcDbLine
 10
340.3894416958
 20
89.4716700969
 30
0.0
 11
340.3938677793
 21
89.1126835608
 31
0.0
  0
LINE
  5
115
330
1F
100
AcDbEntity
  8
0
  6
Continuous
 62
     7
370
    25
100
AcDbLine
 10
340.3938677793
 20
89.1126835608
 30
0.0
 11
340.3951056869
 21
89.0929260789
 31
0.0
  0
ARC
  5
116
330
1F
100
AcDbEntity
  8
0
  6
Continuous
 62
     7
370
    25
100
AcDbCircle
 10
340.3618271266
 20
87.677584082
 30
0.0
 40
0.5594335045413225
100
AcDbArc
 50
257.042667517
 51
354.4019180256
  0
LINE
  5
117
330
1F
100
AcDbEntity
  8
0
  6
Continuous
 62
     7
370
    25
100
AcDbLine
 10
340.2363879311
 20
87.1323952576
 30
0.0
 11
334.0345044725
 21
87.7489144078
 31
0.0
  0
ARC
  5
118
330
1F
100
AcDbEntity
  8
0
  6
Continuous
 62
     7
370
    25
100
AcDbCircle
 10
334.0566553018
 20
88.4731941131
 30
0.0
 40
0.7246183483153171
100
AcDbArc
 50
187.6657143288
 51
268.2482547075
  0
LINE
  5
119
330
1F
100
AcDbEntity
  8
0
  6
Continuous
 62
     7
370
    25
100
AcDbLine
 10
333.3294525802
 20
89.1113763695
 30
0.0
 11
333.3385127232
 21
88.3765349823
 31
0.0
  0
ARC
  5
11A
330
1F
100
AcDbEntity
  8
0
  6
Continuous
 62
     7
370
    25
100
AcDbCircle
 10
333.7650566749
 20
89.1177623412
 30
0.0
 40
0.4356509015568483
100
AcDbArc
 50
148.7747964532
 51
180.8398980227
  0
ARC
  5
11B
330
1F
100
AcDbEntity
  8
0
  6
Continuous
 62
     7
370
    25
100
AcDbCircle
 10
334.0462822959
 20
88.4142079493
 30
0.0
 40
0.4658260810554766
100
AcDbArc
 50
187.6657143281
 51
268.2482547079
  0
LINE
  5
11C
330
1F
100
AcDbEntity
  8
0
  6
Continuous
 62
     7
370
    25
100
AcDbLine
 10
340.2339259357
 20
87.3320804172
 30
0.0
 11
334.032042477
 21
87.9485995673
 31
0.0
  0
ARC
  5
11D
330
1F
100
AcDbEntity
  8
0
  6
Continuous
 62
     7
370
    25
100
AcDbCircle
 10
340.3145654185
 20
87.6825589471
 30
0.0
 40
0.3596358243367775
100
AcDbArc
 50
257.0426675195
 51
354.4019180234
  0
LINE
  5
11E
330
1F
100
AcDbEntity
  8
0
  6
Continuous
 62
     7
370
    25
100
AcDbLine
 10
340.6634258764
 20
88.3823180093
 30
0.0
 11
340.6724860195
 21
87.6474766222
 31
0.0
  0
ARC
  5
11F
330
1F
100
AcDbEntity
  8
0
  6
Continuous
 62
     7
370
    25
100
AcDbCircle
 10
340.2690953084
 20
88.3555493929
 30
0.0
 40
0.3952380999874802
100
AcDbArc
 50
3.8834913067
 51
58.9556924602
  0
LINE
  5
120
330
1F
100
AcDbEntity
  8
0
  6
Continuous
 62
     7
370
    25
100
AcDbLine
 10
340.3806019279
 20
88.7559875566
 30
0.0
 11
340.4729199045
 21
88.6941770493
 31
0.0
  0
ARC
  5
121
330
1F
100
AcDbEntity
  8
0
  6
Continuous
 62
     7
370
    25
100
AcDbCircle
 10
340.6297208415
 20
89.1698657894
 30
0.0
 40
0.4830687577206048
100
AcDbArc
 50
183.8834901626
 51
238.9556953692
  0
LINE
  5
122
330
1F
100
AcDbEntity
  8
0
  6
Continuous
 62
     7
370
    25
100
AcDbLine
 10
340.1408867034
 20
89.6947262117
 30
0.0
 11
340.1477612889
 21
89.1371486032
 31
0.0
  0
ARC
  5
123
330
1F
100
AcDbEntity
  8
0
  6
Continuous
 62
     7
370
    25
100
AcDbCircle
 10
339.7982952715
 20
89.6841013265
 30
0.0
 40
0.3427561485194392
100
AcDbArc
 50
1.7763608879
 51
34.8532694358
  0
ARC
  5
124
330
1F
100
AcDbEntity
  8
0
  6
Continuous
 62
     7
370
    25
100
AcDbCircle
 10
334.3627548656
 20
90.2971814161
 30
0.0
 40
0.2957792928339015
100
AcDbArc
 50
124.5706059251
 51
179.7400149616
  0
LINE
  5
125
330
1F
100
AcDbEntity
  8
0
  6
Continuous
 62
     7
370
    25
100
AcDbLine
 10
334.0738532038
 20
89.7409459315
 30
0.0
 11
334.0669786177
 21
90.2985235382
 31
0.0
  0
ARC
  5
126
330
1F
100
AcDbEntity
  8
0
  6
Continuous
 62
     7
370
    25
100
AcDbCircle
 10
333.7053368566
 20
89.7442127673
 30
0.0
 40
0.3685308268080383
100
AcDbArc
 50
293.0875662931
 51
359.4920957929
  0
LINE
  5
127
330
1F
100
AcDbEntity
  8
0
  6
Continuous
 62
     7
370
    25
100
AcDbLine
 10
333.7588331106
 20
89.361613507
 30
0.0
 11
333.8498516129
 21
89.4051988214
 31
0.0
  0
ARC
  5
128
330
1F
100
AcDbEntity
  8
0
  6
Continuous
 62
     7
370
    25
100
AcDbCircle
 10
333.8770724584
 20
89.0842384426
 30
0.0
 40
0.3015252389356734
100
AcDbArc
 50
113.0875652679
 51
179.4920928646
  0
LINE
  5
129
330
1F
100
AcDbEntity
  8
0
  6
Continuous
 62
     7
370
    25
100
AcDbLine
 10
333.5846192097
 20
88.3520699367
 30
0.0
 11
333.5755590666
 21
89.0869113238
 31
0.0
  0
LINE
  5
12A
330
1F
100
AcDbEntity
  8
0
  6
Continuous
 62
     7
370
    25
100
AcDbLine
 10
340.1408867034
 20
89.6947262117
 30
0.0
 11
340.0195513687
 21
89.798454818
 31
0.0
  0
ARC
  5
12B
330
1F
100
AcDbEntity
  8
0
  6
Continuous
 62
     7
370
    25
100
AcDbCircle
 10
339.7894552761
 20
89.7910432228
 30
0.0
 40
0.2302154286547819
100
AcDbArc
 50
1.8449089903
 51
36.7936987397
  0
LINE
  5
12C
330
1F
100
AcDbEntity
  8
0
  6
Continuous
 62
     7
370
    25
100
AcDbLine
 10
340.1477612889
 20
89.1371486032
 30
0.0
 11
340.0264259536
 21
89.2408772107
 31
0.0
  0
LINE
  5
12D
330
1F
100
AcDbEntity
  8
0
  6
Continuous
 62
     7
370
    25
100
AcDbLine
 10
340.0264259582
 20
89.2408772127
 30
0.0
 11
340.0195513687
 21
89.798454818
 31
0.0
  0
LINE
  5
12E
330
1F
100
AcDbEntity
  8
0
  6
Continuous
 62
     7
370
    25
100
AcDbLine
 10
340.3806019279
 20
88.7559875566
 30
0.0
 11
340.3227685827
 21
88.7557631495
 31
0.0
  0
ARC
  5
12F
330
1F
100
AcDbEntity
  8
0
  6
Continuous
 62
     7
370
    25
100
AcDbCircle
 10
340.639829064
 20
89.2825172828
 30
0.0
 40
0.6148148221883546
100
AcDbArc
 50
183.8834913057
 51
238.9556924606
  0
ARC
  5
130
330
1F
100
AcDbEntity
  8
0
  6
Continuous
 62
     7
370
    25
100
AcDbCircle
 10
334.4331295629
 20
90.3741665729
 30
0.0
 40
0.1921627092860564
100
AcDbArc
 50
129.0302967368
 51
180.379409995
  0
LINE
  5
131
330
1F
100
AcDbEntity
  8
0
  6
Continuous
 62
     7
370
    25
100
AcDbLine
 10
334.0669786177
 20
90.2985235382
 30
0.0
 11
334.2409710669
 21
90.3728940896
 31
0.0
  0
LINE
  5
132
330
1F
100
AcDbEntity
  8
0
  6
Continuous
 62
     7
370
    25
100
AcDbLine
 10
340.4729199045
 20
88.6941770493
 30
0.0
 11
340.4150865605
 21
88.6939526422
 31
0.0
  0
LINE
  5
133
330
1F
100
AcDbEntity
  8
0
  6
Continuous
 62
     7
370
    25
100
AcDbLine
 10
340.4150865605
 20
88.6939526422
 30
0.0
 11
340.3227685813
 21
88.7557631505
 31
0.0
  0
LINE
  5
134
330
1F
100
AcDbEntity
  8
0
  6
Continuous
 62
     7
370
    25
100
AcDbLine
 10
340.6634258764
 20
88.3823180093
 30
0.0
 11
340.5420905418
 21
88.4860466156
 31
0.0
  0
ARC
  5
135
330
1F
100
AcDbEntity
  8
0
  6
Continuous
 62
     7
370
    25
100
AcDbCircle
 10
340.2792034965
 20
88.4682008713
 30
0.0
 40
0.2634920666522726
100
AcDbArc
 50
3.8834913057
 51
58.9556924606
  0
LINE
  5
136
330
1F
100
AcDbEntity
  8
0
  6
Continuous
 62
     7
370
    25
100
AcDbLine
 10
339.0244879464
 20
89.532592785
 30
0.0
 11
338.6307175681
 21
89.571736858
 31
0.0
  0
LINE
  5
137
330
1F
100
AcDbEntity
  8
0
  6
Continuous
 62
     7
370
    25
100
AcDbLine
 10
338.6307175681
 20
89.571736858
 30
0.0
 11
338.6241121515
 21
89.4661908435
 31
0.0
  0
LINE
  5
138
330
1F
100
AcDbEntity
  8
0
  6
Continuous
 62
     7
370
    25
100
AcDbLine
 10
338.6241121515
 20
89.4661908435
 30
0.0
 11
338.2303417732
 21
89.5053349166
 31
0.0
  0
LINE
  5
139
330
1F
100
AcDbEntity
  8
0
  6
Continuous
 62
     7
370
    25
100
AcDbLine
 10
338.2303417732
 20
89.5053349166
 30
0.0
 11
338.2369471897
 21
89.610880931
 31
0.0
  0
LINE
  5
13A
330
1F
100
AcDbEntity
  8
0
  6
Continuous
 62
     7
370
    25
100
AcDbLine
 10
338.2369471897
 20
89.610880931
 30
0.0
 11
337.8431768114
 21
89.6500250041
 31
0.0
  0
LINE
  5
13B
330
1F
100
AcDbEntity
  8
0
  6
Continuous
 62
     7
370
    25
100
AcDbLine
 10
337.8431768114
 20
89.6500250041
 30
0.0
 11
337.8365713949
 21
89.5444789896
 31
0.0
  0
LINE
  5
13C
330
1F
100
AcDbEntity
  8
0
  6
Continuous
 62
     7
370
    25
100
AcDbLine
 10
337.8365713949
 20
89.5444789896
 30
0.0
 11
337.4428010166
 21
89.5836230626
 31
0.0
  0
LINE
  5
13D
330
1F
100
AcDbEntity
  8
0
  6
Continuous
 62
     7
370
    25
100
AcDbLine
 10
337.4428010166
 20
89.5836230626
 30
0.0
 11
337.4494064331
 21
89.6891690771
 31
0.0
  0
LINE
  5
13E
330
1F
100
AcDbEntity
  8
0
  6
Continuous
 62
     7
370
    25
100
AcDbLine
 10
337.4494064331
 20
89.6891690771
 30
0.0
 11
337.0556360548
 21
89.7283131501
 31
0.0
  0
LINE
  5
13F
330
1F
100
AcDbEntity
  8
0
  6
Continuous
 62
     7
370
    25
100
AcDbLine
 10
337.0556360548
 20
89.7283131501
 30
0.0
 11
337.0490306382
 21
89.6227671356
 31
0.0
  0
LINE
  5
140
330
1F
100
AcDbEntity
  8
0
  6
Continuous
 62
     7
370
    25
100
AcDbLine
 10
337.0490306382
 20
89.6227671356
 30
0.0
 11
336.6552602599
 21
89.6619112087
 31
0.0
  0
LINE
  5
141
330
1F
100
AcDbEntity
  8
0
  6
Continuous
 62
     7
370
    25
100
AcDbLine
 10
336.6552602599
 20
89.6619112087
 30
0.0
 11
336.6618656764
 21
89.7674572231
 31
0.0
  0
LINE
  5
142
330
1F
100
AcDbEntity
  8
0
  6
Continuous
 62
     7
370
    25
100
AcDbLine
 10
336.6618656764
 20
89.7674572231
 30
0.0
 11
336.2680952981
 21
89.8066012962
 31
0.0
  0
LINE
  5
143
330
1F
100
AcDbEntity
  8
0
  6
Continuous
 62
     7
370
    25
100
AcDbLine
 10
336.2680952981
 20
89.8066012962
 30
0.0
 11
336.2614898816
 21
89.7010552817
 31
0.0
  0
LINE
  5
144
330
1F
100
AcDbEntity
  8
0
  6
Continuous
 62
     7
370
    25
100
AcDbLine
 10
336.2614898816
 20
89.7010552817
 30
0.0
 11
335.8677195033
 21
89.7401993547
 31
0.0
  0
LINE
  5
145
330
1F
100
AcDbEntity
  8
0
  6
Continuous
 62
     7
370
    25
100
AcDbLine
 10
335.8677195033
 20
89.7401993547
 30
0.0
 11
335.8743249198
 21
89.8457453692
 31
0.0
  0
LINE
  5
146
330
1F
100
AcDbEntity
  8
0
  6
Continuous
 62
     7
370
    25
100
AcDbLine
 10
335.8743249198
 20
89.8457453692
 30
0.0
 11
335.4805545415
 21
89.8848894422
 31
0.0
  0
LINE
  5
147
330
1F
100
AcDbEntity
  8
0
  6
Continuous
 62
     7
370
    25
100
AcDbLine
 10
335.4805545415
 20
89.8848894422
 30
0.0
 11
335.4739491249
 21
89.7793434277
 31
0.0
  0
LINE
  5
148
330
1F
100
AcDbEntity
  8
0
  6
Continuous
 62
     7
370
    25
100
AcDbLine
 10
335.4739491249
 20
89.7793434277
 30
0.0
 11
335.0801787466
 21
89.8184875008
 31
0.0
  0
LINE
  5
149
330
1F
100
AcDbEntity
  8
0
  6
Continuous
 62
     7
370
    25
100
AcDbLine
 10
335.0350202412
 20
89.9563295884
 30
0.0
 11
335.0801787466
 21
89.8184875008
 31
0.0
  0
LINE
  5
14A
330
1F
100
AcDbEntity
  8
0
  6
Continuous
 62
     7
370
    25
100
AcDbLine
 10
335.0350202412
 20
89.9563295884
 30
0.0
 11
335.1878197957
 21
90.3235482204
 31
0.0
  0
LINE
  5
14B
330
1F
100
AcDbEntity
  8
0
  6
Continuous
 62
     7
370
    25
100
AcDbLine
 10
339.3475196002
 20
89.985078241
 30
0.0
 11
339.4733995462
 21
89.5151175186
 31
0.0
  0
LINE
  5
14C
330
1F
100
AcDbEntity
  8
0
  6
Continuous
 62
     7
370
    25
100
AcDbLine
 10
339.4116529082
 20
89.3879026975
 30
0.0
 11
339.4733995462
 21
89.5151175186
 31
0.0
  0
LINE
  5
14D
330
1F
100
AcDbEntity
  8
0
  6
Continuous
 62
     7
370
    25
100
AcDbLine
 10
339.4116529082
 20
89.3879026975
 30
0.0
 11
339.0178825299
 21
89.4270467705
 31
0.0
  0
LINE
  5
14E
330
1F
100
AcDbEntity
  8
0
  6
Continuous
 62
     7
370
    25
100
AcDbLine
 10
339.0178825299
 20
89.4270467705
 30
0.0
 11
339.0244879464
 21
89.532592785
 31
0.0
  0
LINE
  5
14F
330
1F
100
AcDbEntity
  8
0
  6
Continuous
 62
     7
370
    25
100
AcDbLine
 10
339.5276478742
 20
89.4374830651
 30
0.0
 11
339.4733995462
 21
89.5151175186
 31
0.0
  0
LINE
  5
150
330
1F
100
AcDbEntity
  8
0
  6
Continuous
 62
     7
370
    25
100
AcDbLine
 10
339.5276478742
 20
89.4374830651
 30
0.0
 11
339.6903173573
 21
89.9876707883
 31
0.0
  0
LINE
  5
151
330
1F
100
AcDbEntity
  8
0
  6
Continuous
 62
     7
370
    25
100
AcDbLine
 10
340.6724860195
 20
87.6474766222
 30
0.0
 11
340.5511506849
 21
87.7512052284
 31
0.0
  0
LINE
  5
152
330
1F
100
AcDbEntity
  8
0
  6
Continuous
 62
     7
370
    25
100
AcDbLine
 10
340.5511506849
 20
87.7512052284
 30
0.0
 11
340.5420905418
 21
88.4860466156
 31
0.0
  0
LINE
  5
153
330
1F
100
AcDbEntity
  8
0
  6
Continuous
 62
     7
370
    25
100
AcDbLine
 10
334.2409710668
 20
90.3728940896
 30
0.0
 11
334.2478456563
 21
89.8153164844
 31
0.0
  0
LINE
  5
154
330
1F
100
AcDbEntity
  8
0
  6
Continuous
 62
     7
370
    25
100
AcDbLine
 10
334.0738532038
 20
89.7409459315
 30
0.0
 11
334.2478456563
 21
89.8153164844
 31
0.0
  0
LINE
  5
155
330
1F
100
AcDbEntity
  8
0
  6
Continuous
 62
     7
370
    25
100
AcDbLine
 10
339.5276478742
 20
89.4374830651
 30
0.0
 11
339.5345414614
 21
88.8783646184
 31
0.0
  0
LINE
  5
156
330
1F
100
AcDbEntity
  8
0
  6
Continuous
 62
     7
370
    25
100
AcDbLine
 10
339.5345414614
 20
88.8783646184
 30
0.0
 11
339.4770363774
 21
88.8136374026
 31
0.0
  0
LINE
  5
157
330
1F
100
AcDbEntity
  8
0
  6
Continuous
 62
     7
370
    25
100
AcDbLine
 10
339.4770363774
 20
88.8136374026
 30
0.0
 11
339.4185464953
 21
88.8287842507
 31
0.0
  0
LINE
  5
158
330
1F
100
AcDbEntity
  8
0
  6
Continuous
 62
     7
370
    25
100
AcDbLine
 10
339.4185464953
 20
88.8287842507
 30
0.0
 11
339.4116529082
 21
89.3879026975
 31
0.0
  0
ARC
  5
159
330
1F
100
AcDbEntity
  8
0
  6
Continuous
 62
     7
370
    25
100
AcDbCircle
 10
333.7788248284
 20
89.8194742982
 30
0.0
 40
0.4690392568498646
100
AcDbArc
 50
293.0875673986
 51
359.4920930435
  0
LINE
  5
15A
330
1F
100
AcDbEntity
  8
0
  6
Continuous
 62
     7
370
    25
100
AcDbLine
 10
333.8498516129
 20
89.4051988214
 30
0.0
 11
333.9627527188
 21
89.3880019808
 31
0.0
  0
LINE
  5
15B
330
1F
100
AcDbEntity
  8
0
  6
Continuous
 62
     7
370
    25
100
AcDbLine
 10
335.4778883176
 20
89.4598471725
 30
0.0
 11
335.4739491249
 21
89.7793434277
 31
0.0
  0
LINE
  5
15C
330
1F
100
AcDbEntity
  8
0
  6
Continuous
 62
     7
370
    25
100
AcDbLine
 10
335.4778883176
 20
89.4598471725
 30
0.0
 11
335.8716586959
 21
89.4207030994
 31
0.0
  0
LINE
  5
15D
330
1F
100
AcDbEntity
  8
0
  6
Continuous
 62
     7
370
    25
100
AcDbLine
 10
335.8716586959
 20
89.4207030994
 30
0.0
 11
335.8677195033
 21
89.7401993547
 31
0.0
  0
LINE
  5
15E
330
1F
100
AcDbEntity
  8
0
  6
Continuous
 62
     7
370
    25
100
AcDbLine
 10
336.2654290742
 20
89.3815590264
 30
0.0
 11
336.2614898816
 21
89.7010552817
 31
0.0
  0
LINE
  5
15F
330
1F
100
AcDbEntity
  8
0
  6
Continuous
 62
     7
370
    25
100
AcDbLine
 10
336.2654290742
 20
89.3815590264
 30
0.0
 11
336.6591994526
 21
89.3424149534
 31
0.0
  0
LINE
  5
160
330
1F
100
AcDbEntity
  8
0
  6
Continuous
 62
     7
370
    25
100
AcDbLine
 10
336.6591994526
 20
89.3424149534
 30
0.0
 11
336.6552602599
 21
89.6619112087
 31
0.0
  0
LINE
  5
161
330
1F
100
AcDbEntity
  8
0
  6
Continuous
 62
     7
370
    25
100
AcDbLine
 10
337.0529698309
 20
89.3032708804
 30
0.0
 11
337.0490306382
 21
89.6227671356
 31
0.0
  0
LINE
  5
162
330
1F
100
AcDbEntity
  8
0
  6
Continuous
 62
     7
370
    25
100
AcDbLine
 10
337.0529698309
 20
89.3032708804
 30
0.0
 11
337.4467402092
 21
89.2641268073
 31
0.0
  0
LINE
  5
163
330
1F
100
AcDbEntity
  8
0
  6
Continuous
 62
     7
370
    25
100
AcDbLine
 10
337.4467402092
 20
89.2641268073
 30
0.0
 11
337.4428010166
 21
89.5836230626
 31
0.0
  0
LINE
  5
164
330
1F
100
AcDbEntity
  8
0
  6
Continuous
 62
     7
370
    25
100
AcDbLine
 10
337.8405105875
 20
89.2249827343
 30
0.0
 11
337.8365713949
 21
89.5444789896
 31
0.0
  0
LINE
  5
165
330
1F
100
AcDbEntity
  8
0
  6
Continuous
 62
     7
370
    25
100
AcDbLine
 10
337.8405105875
 20
89.2249827343
 30
0.0
 11
338.2342809659
 21
89.1858386613
 31
0.0
  0
LINE
  5
166
330
1F
100
AcDbEntity
  8
0
  6
Continuous
 62
     7
370
    25
100
AcDbLine
 10
338.2342809659
 20
89.1858386613
 30
0.0
 11
338.2303417732
 21
89.5053349166
 31
0.0
  0
LINE
  5
167
330
1F
100
AcDbEntity
  8
0
  6
Continuous
 62
     7
370
    25
100
AcDbLine
 10
338.6280513442
 20
89.1466945882
 30
0.0
 11
338.6241121515
 21
89.4661908435
 31
0.0
  0
LINE
  5
168
330
1F
100
AcDbEntity
  8
0
  6
Continuous
 62
     7
370
    25
100
AcDbLine
 10
338.6280513442
 20
89.1466945882
 30
0.0
 11
339.0218217225
 21
89.1075505152
 31
0.0
  0
LINE
  5
169
330
1F
100
AcDbEntity
  8
0
  6
Continuous
 62
     7
370
    25
100
AcDbLine
 10
339.4185464953
 20
88.8287842507
 30
0.0
 11
335.0870723337
 21
89.259369054
 31
0.0
  0
LINE
  5
16A
330
1F
100
AcDbEntity
  8
0
  6
Continuous
 62
     7
370
    25
100
AcDbLine
 10
335.0801787466
 20
89.8184875008
 30
0.0
 11
335.0870723337
 21
89.259369054
 31
0.0
  0
LINE
  5
16B
330
1F
100
AcDbEntity
  8
0
  6
Continuous
 62
     7
370
    25
100
AcDbLine
 10
339.0218217225
 20
89.1075505152
 30
0.0
 11
339.0178825299
 21
89.4270467705
 31
0.0
  0
LINE
  5
16C
330
1F
100
AcDbEntity
  8
0
  6
Continuous
 62
     7
370
    25
100
AcDbLine
 10
338.6280513442
 20
89.1466945882
 30
0.0
 11
338.7502081218
 21
89.5598584964
 31
0.0
  0
LINE
  5
16D
330
1F
100
AcDbEntity
  8
0
  6
Continuous
 62
     7
370
    25
100
AcDbLine
 10
339.5345414614
 20
88.8783646184
 30
0.0
 11
339.8547722653
 21
89.961463019
 31
0.0
  0
LINE
  5
16E
330
1F
100
AcDbEntity
  8
0
  6
Continuous
 62
     7
370
    25
100
AcDbLine
 10
340.2339259357
 20
87.3320804172
 30
0.0
 11
340.2587772956
 21
87.5409410917
 31
0.0
  0
ARC
  5
16F
330
1F
100
AcDbEntity
  8
0
  6
Continuous
 62
     7
370
    25
100
AcDbCircle
 10
340.3125369509
 20
87.7745934451
 30
0.0
 40
0.239757216213233
100
AcDbArc
 50
257.042667517
 51
354.4019180256
  0
LINE
  5
170
330
1F
100
AcDbEntity
  8
0
  6
Continuous
 62
     7
370
    25
100
AcDbLine
 10
334.9992885235
 20
89.8876399049
 30
0.0
 11
335.0350202412
 21
89.9563295884
 31
0.0
  0
LINE
  5
171
330
1F
100
AcDbEntity
  8
0
  6
Continuous
 62
     7
370
    25
100
AcDbLine
 10
335.1316128811
 20
90.3351930396
 30
0.0
 11
334.9992885235
 21
89.8876399049
 31
0.0
  0
LINE
  5
172
330
1F
100
AcDbEntity
  8
0
  6
Continuous
 62
     7
370
    25
100
AcDbLine
 10
337.8405105875
 20
89.2249827343
 30
0.0
 11
337.9626673651
 21
89.6381466424
 31
0.0
  0
LINE
  5
173
330
1F
100
AcDbEntity
  8
0
  6
Continuous
 62
     7
370
    25
100
AcDbLine
 10
333.9627527172
 20
89.388001986
 30
0.0
 11
333.8717342039
 21
89.3444166603
 31
0.0
  0
LINE
  5
174
330
1F
100
AcDbEntity
  8
0
  6
Continuous
 62
     7
370
    25
100
AcDbLine
 10
333.8717342196
 20
89.3444166678
 30
0.0
 11
333.7588331106
 21
89.361613507
 31
0.0
  0
LINE
  5
175
330
1F
100
AcDbEntity
  8
0
  6
Continuous
 62
     7
370
    25
100
AcDbLine
 10
337.0529698309
 20
89.3032708804
 30
0.0
 11
337.1751266085
 21
89.7164347885
 31
0.0
  0
ARC
  5
176
330
1F
100
AcDbEntity
  8
0
  6
Continuous
 62
     7
370
    25
100
AcDbCircle
 10
333.950560442
 20
89.1594999551
 30
0.0
 40
0.2010168243644317
100
AcDbArc
 50
113.0875673986
 51
179.4920930435
  0
LINE
  5
177
330
1F
100
AcDbEntity
  8
0
  6
Continuous
 62
     7
370
    25
100
AcDbLine
 10
333.5755590666
 20
89.0869113238
 30
0.0
 11
333.7495515157
 21
89.1612818753
 31
0.0
  0
LINE
  5
178
330
1F
100
AcDbEntity
  8
0
  6
Continuous
 62
     7
370
    25
100
AcDbLine
 10
334.032042477
 20
87.9485995673
 30
0.0
 11
334.056893837
 21
88.1574602419
 31
0.0
  0
LINE
  5
179
330
1F
100
AcDbEntity
  8
0
  6
Continuous
 62
     7
370
    25
100
AcDbLine
 10
334.056893837
 20
88.1574602419
 30
0.0
 11
340.2587772956
 21
87.5409410917
 31
0.0
  0
LINE
  5
17A
330
1F
100
AcDbEntity
  8
0
  6
Continuous
 62
     7
370
    25
100
AcDbLine
 10
336.2654290742
 20
89.3815590264
 30
0.0
 11
336.3875858518
 21
89.7947229345
 31
0.0
  0
LINE
  5
17B
330
1F
100
AcDbEntity
  8
0
  6
Continuous
 62
     7
370
    25
100
AcDbLine
 10
339.437083665
 20
88.8082765728
 30
0.0
 11
339.4770363774
 21
88.8136374026
 31
0.0
  0
LINE
  5
17C
330
1F
100
AcDbEntity
  8
0
  6
Continuous
 62
     7
370
    25
100
AcDbLine
 10
339.437083665
 20
88.8082765728
 30
0.0
 11
335.1056095034
 21
89.2388613761
 31
0.0
  0
LINE
  5
17D
330
1F
100
AcDbEntity
  8
0
  6
Continuous
 62
     7
370
    25
100
AcDbLine
 10
335.0471196213
 20
89.2540082242
 30
0.0
 11
335.1056095034
 21
89.2388613761
 31
0.0
  0
LINE
  5
17E
330
1F
100
AcDbEntity
  8
0
  6
Continuous
 62
     7
370
    25
100
AcDbLine
 10
335.0870723337
 20
89.259369054
 30
0.0
 11
335.0471196213
 21
89.2540082242
 31
0.0
  0
LINE
  5
17F
330
1F
100
AcDbEntity
  8
0
  6
Continuous
 62
     7
370
    25
100
AcDbLine
 10
334.5132554956
 20
89.7009862755
 30
0.0
 11
334.056893837
 21
88.1574602419
 31
0.0
  0
LINE
  5
180
330
1F
100
AcDbEntity
  8
0
  6
Continuous
 62
     7
370
    25
100
AcDbLine
 10
334.724907074
 20
89.6799463362
 30
0.0
 11
334.5132554956
 21
89.7009862755
 31
0.0
  0
LINE
  5
181
330
1F
100
AcDbEntity
  8
0
  6
Continuous
 62
     7
370
    25
100
AcDbLine
 10
334.9314057355
 20
90.3783749925
 30
0.0
 11
334.724907074
 21
89.6799463362
 31
0.0
  0
LINE
  5
182
330
1F
100
AcDbEntity
  8
0
  6
Continuous
 62
     7
370
    25
100
AcDbLine
 10
339.8645509022
 20
88.2116484777
 30
0.0
 11
340.1652948992
 21
88.8953292118
 31
0.0
  0
LINE
  5
183
330
1F
100
AcDbEntity
  8
0
  6
Continuous
 62
     7
370
    25
100
AcDbLine
 10
338.8363649189
 20
88.8679930466
 30
0.0
 11
338.7515932344
 21
88.3222857897
 31
0.0
  0
LWPOLYLINE
  5
184
330
1F
100
AcDbEntity
  8
0
  6
Continuous
 62
     7
370
    25
100
AcDbPolyline
 90
        9
 70
   128
 43
0.0
 10
338.7515932344
 20
88.3222857897
 10
338.7515811026
 20
88.2999426929
 10
338.7584351458
 20
88.2780374592
 10
338.7719190339
 20
88.2573253905
 10
338.7915678364
 20
88.2385206478
 10
338.8167040543
 20
88.2222716267
 10
338.8464609799
 20
88.2091386006
 10
338.8798125816
 20
88.1995744018
 10
338.9156088818
 20
88.1939088079
  0
LINE
  5
185
330
1F
100
AcDbEntity
  8
0
  6
Continuous
 62
     7
370
    25
100
AcDbLine
 10
338.9156088818
 20
88.1939088079
 30
0.0
 11
339.6361563493
 21
88.1222803558
 31
0.0
  0
ARC
  5
186
330
1F
100
AcDbEntity
  8
0
  6
Continuous
 62
     7
370
    25
100
AcDbCircle
 10
339.6808295472
 20
88.3446443378
 30
0.0
 40
0.226807043731002
100
AcDbArc
 50
258.640425392
 51
324.0992267794
  0
LINE
  5
187
330
1F
100
AcDbEntity
  8
0
  6
Continuous
 62
     7
370
    25
100
AcDbLine
 10
336.5832327814
 20
89.0919732487
 30
0.0
 11
336.2979941295
 21
88.4541216342
 31
0.0
  0
LINE
  5
188
330
1F
100
AcDbEntity
  8
0
  6
Continuous
 62
     7
370
    25
100
AcDbLine
 10
338.3160673184
 20
88.2535082599
 30
0.0
 11
336.2979941295
 21
88.4541216342
 31
0.0
  0
LINE
  5
189
330
1F
100
AcDbEntity
  8
0
  6
Continuous
 62
     7
370
    25
100
AcDbLine
 10
338.3160673184
 20
88.2535082599
 30
0.0
 11
338.4135244911
 21
88.910026926
 31
0.0
  0
LINE
  5
18A
330
1F
100
AcDbEntity
  8
0
  6
Continuous
 62
     7
370
    25
100
AcDbLine
 10
335.0678634847
 20
90.3486530161
 30
0.0
 11
334.8138894512
 21
88.71372652
 31
0.0
  0
LWPOLYLINE
  5
18B
330
1F
100
AcDbEntity
  8
0
  6
Continuous
 62
     7
370
    25
100
AcDbPolyline
 90
        9
 70
   128
 43
0.0
 10
334.9779050986
 20
88.5853495382
 10
334.9421087984
 20
88.591015132
 10
334.9087571967
 20
88.6005793309
 10
334.8790002711
 20
88.613712357
 10
334.8538640532
 20
88.629961378
 10
334.8342152506
 20
88.6487661207
 10
334.8207313626
 20
88.6694781895
 10
334.8138773193
 20
88.6913834232
 10
334.8138894512
 20
88.71372652
  0
LINE
  5
18C
330
1F
100
AcDbEntity
  8
0
  6
Continuous
 62
     7
370
    25
100
AcDbLine
 10
335.6984525661
 20
88.5137210861
 30
0.0
 11
334.9779050986
 21
88.5853495382
 31
0.0
  0
ARC
  5
18D
330
1F
100
AcDbEntity
  8
0
  6
Continuous
 62
     7
370
    25
100
AcDbCircle
 10
335.743125764
 20
88.7360850681
 30
0.0
 40
0.2268070437309271
100
AcDbArc
 50
258.640425392
 51
324.0992267794
  0
LINE
  5
18E
330
1F
100
AcDbEntity
  8
0
  6
Continuous
 62
     7
370
    25
100
AcDbLine
 10
335.9268471189
 20
88.6030892079
 30
0.0
 11
336.1603923535
 21
89.1340071281
 31
0.0
  0
LINE
  5
18F
330
1F
100
AcDbEntity
  8
0
  6
Continuous
 62
     7
370
    25
100
AcDbLine
 10
335.4778883176
 20
89.4598471725
 30
0.0
 11
335.6000450952
 21
89.8730110806
 31
0.0
  0
LINE
  5
190
330
1F
100
AcDbEntity
  8
0
  6
Continuous
 62
     7
370
    25
100
AcDbLine
 10
333.7495515157
 20
89.1612818753
 30
0.0
 11
333.7586116588
 21
88.4264404882
 31
0.0
  0
LINE
  5
191
330
1F
100
AcDbEntity
  8
0
  6
Continuous
 62
     7
370
    25
100
AcDbLine
 10
333.5846192097
 20
88.3520699367
 30
0.0
 11
333.7586116588
 21
88.4264404882
 31
0.0
  0
LINE
  5
192
330
1F
100
AcDbEntity
  8
0
  6
Continuous
 62
     7
370
    25
100
AcDbLine
 10
335.0471196213
 20
89.2540082242
 30
0.0
 11
335.0061821107
 21
89.3285214582
 31
0.0
  0
LINE
  5
193
330
1F
100
AcDbEntity
  8
0
  6
Continuous
 62
     7
370
    25
100
AcDbLine
 10
335.0061821107
 20
89.3285214582
 30
0.0
 11
334.9992885235
 21
89.8876399049
 31
0.0
  0
ARC
  5
194
330
1F
100
AcDbEntity
  8
0
  6
Continuous
 62
     7
370
    25
100
AcDbCircle
 10
334.0663870496
 20
88.4678658299
 30
0.0
 40
0.3105507206925464
100
AcDbArc
 50
187.6657143288
 51
268.2482547075
  0
LINE
  5
195
330
1F
100
AcDbEntity
  8
0
  6
Continuous
 62
     7
370
    25
100
AcDbLine
 10
338.0084850016
 20
88.2840845179
 30
0.0
 11
338.1204645337
 21
88.9391595398
 31
0.0
  0
LINE
  5
196
330
1F
100
AcDbEntity
  8
0
  6
Continuous
 62
     7
370
    25
100
AcDbLine
 10
338.0539851102
 20
88.2795614261
 30
0.0
 11
338.1665497096
 21
88.9345782874
 31
0.0
  0
LINE
  5
197
330
1F
100
AcDbEntity
  8
0
  6
Continuous
 62
     7
370
    25
100
AcDbLine
 10
336.8176858227
 20
89.0686666531
 30
0.0
 11
336.639405512
 21
88.4201824838
 31
0.0
  0
ARC
  5
198
330
1F
100
AcDbEntity
  8
0
  6
Continuous
 62
     7
370
    25
100
AcDbCircle
 10
334.5445367975
 20
90.0587373006
 30
0.0
 40
0.3591160200581206
100
AcDbArc
 50
220.4999469448
 51
265.0028382137
  0
SPLINE
  5
199
330
1F
100
AcDbEntity
  8
0
  6
Continuous
 62
     7
370
    25
100
AcDbSpline
210
0.0
220
0.0
230
1.0
 70
     8
 71
     3
 72
    11
 73
     7
 74
     0
 42
0.000000001
 43
0.00000001
 40
0.0
 40
0.0
 40
0.0
 40
0.0
 40
0.3075978694360449
 40
0.6327020808936291
 40
0.9556586173242823
 40
1.0
 40
1.0
 40
1.0
 40
1.0
 10
339.7955387697918
 20
88.50608091347515
 30
0.0
 10
339.8091336491732
 20
88.55738428106095
 30
0.0
 10
339.8370971343882
 20
88.66291084887457
 30
0.0
 10
339.8825441756744
 20
88.79589470100005
 30
0.0
 10
339.912757295075
 20
88.8642717327564
 30
0.0
 10
339.926587457416
 20
88.8883619330652
 30
0.0
 10
339.9282570789654
 20
88.8912701793009
 30
0.0
  0
LINE
  5
19A
330
1F
100
AcDbEntity
  8
0
  6
Continuous
 62
     7
370
    25
100
AcDbLine
 10
339.7562155403
 20
88.5495844287
 30
0.0
 11
339.7955387698
 21
88.5060809135
 31
0.0
  0
SPLINE
  5
19B
330
1F
100
AcDbEntity
  8
0
  6
Continuous
 62
     7
370
    25
100
AcDbSpline
210
0.0
220
0.0
230
1.0
 70
     8
 71
     3
 72
    11
 73
     7
 74
     0
 42
0.000000001
 43
0.00000001
 40
0.0
 40
0.0
 40
0.0
 40
0.0
 40
0.3186810470820973
 40
0.6377738590184987
 40
0.9587238179535056
 40
0.9999999999999999
 40
0.9999999999999999
 40
0.9999999999999999
 40
0.9999999999999999
 10
339.756215540299
 20
88.54958442869629
 30
0.0
 10
339.7770308132489
 20
88.63478588144747
 30
0.0
 10
339.8186882543719
 20
88.80529887496446
 30
0.0
 10
339.8751339928927
 20
89.01927681262606
 30
0.0
 10
339.9151234320619
 20
89.12666629412222
 30
0.0
 10
339.9365862932621
 20
89.16451049442855
 30
0.0
 10
339.9390320167091
 20
89.16882289467945
 30
0.0
  0
LINE
  5
19C
330
1F
100
AcDbEntity
  8
0
  6
Continuous
 62
     7
370
    25
100
AcDbLine
 10
339.9390320167
 20
89.1688228947
 30
0.0
 11
339.928257079
 21
88.8912701793
 31
0.0
  0
LINE
  5
19D
330
1F
100
AcDbEntity
  8
0
  6
Continuous
 62
     7
370
    25
100
AcDbLine
 10
338.9686747431
 20
88.6278723711
 30
0.0
 11
339.7562155403
 21
88.5495844287
 31
0.0
  0
LINE
  5
19E
330
1F
100
AcDbEntity
  8
0
  6
Continuous
 62
     7
370
    25
100
AcDbLine
 10
338.9801034568
 20
88.8537042322
 30
0.0
 11
338.9686747431
 21
88.6278723711
 31
0.0
  0
LINE
  5
19F
330
1F
100
AcDbEntity
  8
0
  6
Continuous
 62
     7
370
    25
100
AcDbLine
 10
339.6774122244
 20
88.3058587336
 30
0.0
 11
339.7562155403
 21
88.5495844287
 31
0.0
  0
LINE
  5
1A0
330
1F
100
AcDbEntity
  8
0
  6
Continuous
 62
     7
370
    25
100
AcDbLine
 10
338.9883140623
 20
88.3743608614
 30
0.0
 11
339.6774122244
 21
88.3058587336
 31
0.0
  0
LINE
  5
1A1
330
1F
100
AcDbEntity
  8
0
  6
Continuous
 62
     7
370
    25
100
AcDbLine
 10
338.9686747431
 20
88.6278723711
 30
0.0
 11
338.9883140623
 21
88.3743608614
 31
0.0
  0
LINE
  5
1A2
330
1F
100
AcDbEntity
  8
0
  6
Continuous
 62
     7
370
    25
100
AcDbLine
 10
339.7167354995
 20
88.2623553792
 30
0.0
 11
339.7955387698
 21
88.5060809135
 31
0.0
  0
LINE
  5
1A3
330
1F
100
AcDbEntity
  8
0
  6
Continuous
 62
     7
370
    25
100
AcDbLine
 10
339.7167354995
 20
88.2623553792
 30
0.0
 11
339.6774122244
 21
88.3058587336
 31
0.0
  0
LINE
  5
1A4
330
1F
100
AcDbEntity
  8
0
  6
Continuous
 62
     7
370
    25
100
AcDbLine
 10
339.0276373374
 20
88.330857507
 30
0.0
 11
339.7167354995
 21
88.2623553792
 31
0.0
  0
LINE
  5
1A5
330
1F
100
AcDbEntity
  8
0
  6
Continuous
 62
     7
370
    25
100
AcDbLine
 10
338.9883140623
 20
88.3743608614
 30
0.0
 11
339.0276373374
 21
88.330857507
 31
0.0
  0
LINE
  5
1A6
330
1F
100
AcDbEntity
  8
0
  6
Continuous
 62
     7
370
    25
100
AcDbLine
 10
338.8891208722
 20
88.862748663
 30
0.0
 11
338.792088528
 21
88.2381149222
 31
0.0
  0
LINE
  5
1A7
330
1F
100
AcDbEntity
  8
0
  6
Continuous
 62
     7
370
    25
100
AcDbLine
 10
336.6188651866
 20
88.8433494601
 30
0.0
 11
336.4385590593
 21
88.4401483031
 31
0.0
  0
SPLINE
  5
1A8
330
1F
100
AcDbEntity
  8
0
  6
Continuous
 62
     7
370
    25
100
AcDbSpline
210
0.0
220
0.0
230
1.0
 70
     8
 71
     3
 72
    17
 73
    13
 74
     0
 42
0.000000001
 43
0.00000001
 40
0.0
 40
0.0
 40
0.0
 40
0.0
 40
0.1234607057597277
 40
0.2469213986472441
 40
0.3703820915581216
 40
0.4321124296192391
 40
0.5555731225648405
 40
0.6173034606302729
 40
0.7407641536102254
 40
0.8642248466128852
 40
0.9259551846854038
 40
1.0
 40
1.0
 40
1.0
 40
1.0
 10
339.9282570789654
 20
88.8912701793009
 30
0.0
 10
339.9335762376619
 20
88.90032868312332
 30
0.0
 10
339.9442145545003
 20
88.91844568982368
 30
0.0
 10
339.9600602136463
 20
88.94563411034983
 30
0.0
 10
339.9731967907982
 20
88.96829895019073
 30
0.0
 10
339.9862767741494
 20
88.9909702647595
 30
0.0
 10
339.9966968430336
 20
89.0091123321438
 30
0.0
 10
340.0096664285972
 20
89.03179622461474
 30
0.0
 10
340.0225815720512
 20
89.0544862974126
 30
0.0
 10
340.0354197855263
 20
89.07718505892439
 30
0.0
 10
340.0461633631352
 20
89.09625410751923
 30
0.0
 10
340.0517572026311
 20
89.10624526530627
 30
0.0
 10
340.0548077962194
 20
89.11169393109428
 30
0.0
  0
SPLINE
  5
1A9
330
1F
100
AcDbEntity
  8
0
  6
Continuous
 62
     7
370
    25
100
AcDbSpline
210
0.0
220
0.0
230
1.0
 70
     8
 71
     3
 72
    14
 73
    10
 74
     0
 42
0.000000001
 43
0.00000001
 40
0.0
 40
0.0
 40
0.0
 40
0.0
 40
0.1820746344288603
 40
0.364149259799578
 40
0.5462238852047355
 40
0.6372611855277223
 40
0.8193358109840959
 40
0.9103731113134461
 40
1.0
 40
1.0
 40
1.0
 40
1.0
 10
339.9390320167091
 20
89.16882289467945
 30
0.0
 10
339.9443511706551
 20
89.17788139851376
 30
0.0
 10
339.9549894782824
 20
89.19599840573174
 30
0.0
 10
339.9708352002655
 20
89.22318681861591
 30
0.0
 10
339.9839715782022
 20
89.24585168101325
 30
0.0
 10
339.9970520699814
 20
89.26852293801477
 30
0.0
 10
340.007469451104
 20
89.28666530972329
 30
0.0
 10
340.0178112206524
 20
89.3047414241208
 30
0.0
 10
340.0229320137041
 20
89.31374773804937
 30
0.0
 10
340.0254724216917
 20
89.31821573970676
 30
0.0
  0
SPLINE
  5
1AA
330
1F
100
AcDbEntity
  8
0
  6
Continuous
 62
     7
370
    25
100
AcDbSpline
210
0.0
220
0.0
230
1.0
 70
     8
 71
     3
 72
     9
 73
     5
 74
     0
 42
0.000000001
 43
0.00000001
 40
0.0
 40
0.0
 40
0.0
 40
0.0
 40
0.5371971697194713
 40
1.0
 40
1.0
 40
1.0
 40
1.0
 10
335.8578349679547
 20
88.89752157132934
 30
0.0
 10
335.8714664301215
 20
88.94952766976658
 30
0.0
 10
335.8968415864611
 20
89.04633774504006
 30
0.0
 10
335.9235769105273
 20
89.12152273978192
 30
0.0
 10
335.9359500941736
 20
89.15631856814309
 30
0.0
  0
LINE
  5
1AB
330
1F
100
AcDbEntity
  8
0
  6
Continuous
 62
     7
370
    25
100
AcDbLine
 10
335.8185116696
 20
88.941024854
 30
0.0
 11
335.857834968
 21
88.8975215713
 31
0.0
  0
LINE
  5
1AC
330
1F
100
AcDbEntity
  8
0
  6
Continuous
 62
     7
370
    25
100
AcDbLine
 10
335.8185116696
 20
88.941024854
 30
0.0
 11
335.873249286
 21
89.1625515535
 31
0.0
  0
LINE
  5
1AD
330
1F
100
AcDbEntity
  8
0
  6
Continuous
 62
     7
370
    25
100
AcDbLine
 10
335.03097094
 20
89.0193131873
 30
0.0
 11
335.8185116696
 21
88.941024854
 31
0.0
  0
LINE
  5
1AE
330
1F
100
AcDbEntity
  8
0
  6
Continuous
 62
     7
370
    25
100
AcDbLine
 10
335.0432084842
 20
89.261127159
 30
0.0
 11
335.03097094
 21
89.0193131873
 31
0.0
  0
LINE
  5
1AF
330
1F
100
AcDbEntity
  8
0
  6
Continuous
 62
     7
370
    25
100
AcDbLine
 10
335.7397084412
 20
88.6972994639
 30
0.0
 11
335.8185116696
 21
88.941024854
 31
0.0
  0
LINE
  5
1B0
330
1F
100
AcDbEntity
  8
0
  6
Continuous
 62
     7
370
    25
100
AcDbLine
 10
335.0506102791
 20
88.7658015917
 30
0.0
 11
335.7397084412
 21
88.6972994639
 31
0.0
  0
LINE
  5
1B1
330
1F
100
AcDbEntity
  8
0
  6
Continuous
 62
     7
370
    25
100
AcDbLine
 10
335.03097094
 20
89.0193131873
 30
0.0
 11
335.0506102791
 21
88.7658015917
 31
0.0
  0
LINE
  5
1B2
330
1F
100
AcDbEntity
  8
0
  6
Continuous
 62
     7
370
    25
100
AcDbLine
 10
335.7790317162
 20
88.6537961095
 30
0.0
 11
335.857834968
 21
88.8975215713
 31
0.0
  0
LINE
  5
1B3
330
1F
100
AcDbEntity
  8
0
  6
Continuous
 62
     7
370
    25
100
AcDbLine
 10
335.7397084412
 20
88.6972994639
 30
0.0
 11
335.7790317162
 21
88.6537961095
 31
0.0
  0
LINE
  5
1B4
330
1F
100
AcDbEntity
  8
0
  6
Continuous
 62
     7
370
    25
100
AcDbLine
 10
339.8263629509
 20
89.865375814
 30
0.0
 11
340.0130330324
 21
89.8468192447
 31
0.0
  0
LINE
  5
1B5
330
1F
100
AcDbEntity
  8
0
  6
Continuous
 62
     7
370
    25
100
AcDbLine
 10
335.0899335542
 20
88.7222982373
 30
0.0
 11
335.7790317162
 21
88.6537961095
 31
0.0
  0
LINE
  5
1B6
330
1F
100
AcDbEntity
  8
0
  6
Continuous
 62
     7
370
    25
100
AcDbLine
 10
335.0899335542
 20
88.7222982373
 30
0.0
 11
335.0506102791
 21
88.7658015917
 31
0.0
  0
LINE
  5
1B7
330
1F
100
AcDbEntity
  8
0
  6
Continuous
 62
     7
370
    25
100
AcDbLine
 10
335.0802584637
 20
90.1614999199
 30
0.0
 11
335.0779775317
 21
90.3464995647
 31
0.0
  0
LINE
  5
1B8
330
1F
100
AcDbEntity
  8
0
  6
Continuous
 62
     7
370
    25
100
AcDbLine
 10
335.0030041695
 20
89.5862748576
 30
0.0
 11
334.8543847447
 21
88.6295556525
 31
0.0
  0
ARC
  5
1B9
330
1F
100
AcDbEntity
  8
0
  6
Continuous
 62
     7
370
    25
100
AcDbCircle
 10
334.7393912284
 20
89.686198271
 30
0.0
 40
2.059809815969797
100
AcDbArc
 50
335.8461833209
 51
343.471361949
  0
LINE
  5
1BA
330
1F
100
AcDbEntity
  8
0
  6
Continuous
 62
     7
370
    25
100
AcDbLine
 10
334.724907074
 20
89.6799463362
 30
0.0
 11
334.3308029873
 21
90.0262139065
 31
0.0
  0
LWPOLYLINE
  5
1BB
330
1F
100
AcDbEntity
  8
0
  6
Continuous
 62
     7
370
    25
100
AcDbPolyline
 90
       21
 70
   128
 43
0.0
 10
334.2679517982
 20
108.8535888631
 10
333.8196226493
 20
109.290146127
 10
333.4592420481
 20
109.7557343181
 10
333.1916835239
 20
110.2440571548
 10
333.020565347
 20
110.7485109084
 10
332.9482015969
 20
111.2622737074
 10
332.9755708694
 20
111.7783977912
 10
333.1023030419
 20
112.289903467
 10
333.3266842792
 20
112.7898734981
 10
333.64568021
 20
113.2715466473
 10
334.0549769616
 20
113.7284091117
 10
334.5490394976
 20
114.1542826103
 10
335.1211864697
 20
114.5434079344
 10
335.7636805716
 20
114.8905228317
 10
336.4678331728
 20
115.1909331686
 10
337.2241218173
 20
115.4405764107
 10
338.0223189986
 20
115.6360765613
 10
338.8516304692
 20
115.7747898164
 10
339.7008412139
 20
115.854840317
 10
340.5584671144
 20
115.8751455176
 10
340.9310208659
 20
115.8652408542
  0
LWPOLYLINE
  5
1BC
330
1F
100
AcDbEntity
  8
0
  6
Continuous
 62
     7
370
    25
100
AcDbPolyline
 90
       36
 70
   128
 43
0.0
 10
342.2265150579
 20
115.740252352
 10
342.2526157478
 20
115.7362333125
 10
343.0662280267
 20
115.5788944561
 10
343.8427443779
 20
115.365541994
 10
344.57166375
 20
115.0990611523
 10
345.2431287588
 20
114.7830556271
 10
345.848058992
 20
114.4217988511
 10
346.3782738059
 20
114.0201762025
 10
346.8266029548
 20
113.5836189387
 10
347.186983556
 20
113.1180307476
 10
347.4545420801
 20
112.6297079109
 10
347.6256602571
 20
112.1252541572
 10
347.6980240072
 20
111.6114913582
 10
347.6706547347
 20
111.0953672744
 10
347.5439225622
 20
110.5838615986
 10
347.3195413249
 20
110.0838915676
 10
347.0005453941
 20
109.6022184184
 10
346.5912486424
 20
109.1453559539
 10
346.0971861065
 20
108.7194824554
 10
345.5250391344
 20
108.3303571312
 10
344.8825450325
 20
107.983242234
 10
344.1783924313
 20
107.6828318971
 10
343.4221037868
 20
107.433188655
 10
342.6239066055
 20
107.2376885044
 10
341.7945951349
 20
107.0989752493
 10
340.9453843902
 20
107.0189247486
 10
340.0877584897
 20
106.9986195481
 10
339.2333153525
 20
107.0383342406
 10
338.3936098563
 20
107.1375317532
 10
337.5799975774
 20
107.2948706096
 10
336.8034812261
 20
107.5082230717
 10
336.0745618541
 20
107.7747039134
 10
335.4030968453
 20
108.0907094386
 10
334.7981666121
 20
108.4519662145
 10
334.2679517982
 20
108.8535888631
 10
334.2679517982
 20
108.8535888631
  0
LINE
  5
1BD
330
1F
100
AcDbEntity
  8
0
  6
Continuous
 62
     7
370
    25
100
AcDbLine
 10
343.5399413743
 20
113.3119756143
 30
0.0
 11
344.5398621046
 21
113.8217661303
 31
0.0
  0
ARC
  5
1BE
330
1F
100
AcDbEntity
  8
0
  6
Continuous
 62
     7
370
    25
100
AcDbCircle
 10
340.8668125592
 20
108.8757289502
 30
0.0
 40
5.17937275414131
100
AcDbArc
 50
58.9282867447
 51
77.0772465263
  0
LWPOLYLINE
  5
1BF
330
1F
100
AcDbEntity
  8
0
  6
Continuous
 62
     7
370
    25
100
AcDbPolyline
 90
       25
 70
   128
 43
0.0
 10
334.5735497918
 20
111.3659939513
 10
334.6286045458
 20
110.9138299052
 10
334.7828871661
 20
110.4680053189
 10
335.0336777964
 20
110.0390580979
 10
335.3766077869
 20
109.634460292
 10
335.8057034657
 20
109.2612597965
 10
336.3134901967
 20
108.9259575806
 10
336.8911225845
 20
108.6343944444
 10
337.5285385565
 20
108.3916492744
 10
338.2146346395
 20
108.2019505724
 10
338.9374593767
 20
108.0686027965
 10
339.6844215161
 20
107.9939287995
 10
340.4425093441
 20
107.9792293658
 10
341.1985173429
 20
108.0247605523
 10
341.9392762245
 20
108.1297292281
 10
342.651882333
 20
108.2923068904
 10
343.3239224198
 20
108.5096615162
 10
343.9436898767
 20
108.7780068946
 10
344.5003886589
 20
109.0926685809
 10
344.9843213471
 20
109.4481653231
 10
345.3870580714
 20
109.8383045424
 10
345.701583356
 20
110.2562902053
 10
345.9224183247
 20
110.6948412068
 10
346.0457161408
 20
111.1463182038
 10
346.0726758123
 20
111.5077711144
  0
ARC
  5
1C0
330
1F
100
AcDbEntity
  8
0
  6
Continuous
 62
     7
370
    25
100
AcDbCircle
 10
342.6302235567
 20
111.3341899831
 30
0.0
 40
2.15271560551321
100
AcDbArc
 50
6.3315183576
 51
58.9708366122
  0
ARC
  5
1C1
330
1F
100
AcDbEntity
  8
0
  6
Continuous
 62
     7
370
    25
100
AcDbCircle
 10
338.7834936344
 20
110.8456555404
 30
0.0
 40
2.973605690971963
100
AcDbArc
 50
103.1085341074
 51
168.0390693164
  0
LINE
  5
1C2
330
1F
100
AcDbEntity
  8
0
  6
Continuous
 62
     7
370
    25
100
AcDbLine
 10
339.6358418105
 20
111.3410273947
 30
0.0
 11
342.1310192213
 21
109.2037625776
 31
0.0
  0
ARC
  5
1C3
330
1F
100
AcDbEntity
  8
0
  6
Continuous
 62
     7
370
    25
100
AcDbCircle
 10
340.7622407202
 20
113.8901716796
 30
0.0
 40
4.882211062282752
100
AcDbArc
 50
286.2817139007
 51
299.927070256
  0
LINE
  5
1C4
330
1F
100
AcDbEntity
  8
0
  6
Continuous
 62
     7
370
    25
100
AcDbLine
 10
341.047828202
 20
111.6587254074
 30
0.0
 11
342.2278841008
 21
115.6292133334
 31
0.0
  0
LINE
  5
1C5
330
1F
100
AcDbEntity
  8
0
  6
Continuous
 62
     7
370
    25
100
AcDbLine
 10
343.2256255616
 20
108.2661684772
 30
0.0
 11
343.8857584147
 21
107.7007262303
 31
0.0
  0
ARC
  5
1C6
330
1F
100
AcDbEntity
  8
0
  6
Continuous
 62
     7
370
    25
100
AcDbCircle
 10
341.0947074457
 20
115.7208983055
 30
0.0
 40
8.491944749426079
100
AcDbArc
 50
289.1880946973
 51
297.0206894594
  0
LINE
  5
1C7
330
1F
100
AcDbEntity
  8
0
  6
Continuous
 62
     7
370
    25
100
AcDbLine
 10
340.1550062463
 20
114.1108759813
 30
0.0
 11
340.3885024665
 21
114.8965115806
 31
0.0
  0
LINE
  5
1C8
330
1F
100
AcDbEntity
  8
0
  6
Continuous
 62
     7
370
    25
100
AcDbLine
 10
337.7264107673
 20
114.5029086109
 30
0.0
 11
338.3743443318
 21
113.8283816777
 31
0.0
  0
ARC
  5
1C9
330
1F
100
AcDbEntity
  8
0
  6
Continuous
 62
     7
370
    25
100
AcDbCircle
 10
340.3446796913
 20
107.1619775537
 30
0.0
 40
6.951486558513649
100
AcDbArc
 50
91.5635269806
 51
106.4656740752
  0
LINE
  5
1CA
330
1F
100
AcDbEntity
  8
0
  6
Continuous
 62
     7
370
    25
100
AcDbLine
 10
344.7360840853
 20
113.8475040759
 30
0.0
 11
343.7379235386
 21
113.3386109559
 31
0.0
  0
LWPOLYLINE
  5
1CB
330
1F
100
AcDbEntity
  8
0
  6
Continuous
 62
     7
370
    25
100
AcDbPolyline
 90
       38
 70
   128
 43
0.0
 10
337.4603280488
 20
114.574863276
 10
336.8284164582
 20
114.3170801031
 10
336.2573464524
 20
114.0119080367
 10
335.7570657903
 20
113.6646630246
 10
335.3362891156
 20
113.2813939043
 10
335.0023461511
 20
112.8687770356
 10
334.7610540194
 20
112.4340000018
 10
334.6166159109
 20
111.9846364052
 10
334.5715478665
 20
111.5285139391
 10
334.6266349495
 20
111.0735780329
 10
334.7809175698
 20
110.6277534466
 10
335.0317082001
 20
110.1988062255
 10
335.3746381906
 20
109.7942084197
 10
335.8037338694
 20
109.4210079241
 10
336.3115206004
 20
109.0857057083
 10
336.8891529882
 20
108.794142572
 10
337.5265689602
 20
108.5513974021
 10
338.2126650432
 20
108.3616987
 10
338.9354897804
 20
108.2283509241
 10
339.6824519198
 20
108.1536769271
 10
340.4405397478
 20
108.1389774934
 10
341.1965477466
 20
108.18450868
 10
341.9373066282
 20
108.2894773558
 10
342.6499127366
 20
108.4520550181
 10
343.3219528235
 20
108.6694096438
 10
343.9417202804
 20
108.9377550222
 10
344.4984190626
 20
109.2524167085
 10
344.9823517508
 20
109.6079134507
 10
345.3850884751
 20
109.99805267
 10
345.6996137596
 20
110.416038333
 10
345.9204487283
 20
110.8545893345
 10
346.0437465445
 20
111.3060663315
 10
346.0673594208
 20
111.7626048164
 10
345.9908760324
 20
112.216252113
 10
345.8156286824
 20
112.6591059082
 10
345.5446700937
 20
113.0834519064
 10
345.1827202317
 20
113.4818982086
 10
344.7360840853
 20
113.8475040759
  0
LINE
  5
1CC
330
1F
100
AcDbEntity
  8
0
  6
Continuous
 62
     7
370
    25
100
AcDbLine
 10
338.1071210408
 20
113.9015237282
 30
0.0
 11
337.4603280488
 21
114.574863276
 31
0.0
  0
LWPOLYLINE
  5
1CD
330
1F
100
AcDbEntity
  8
0
  6
Continuous
 62
     7
370
    25
100
AcDbPolyline
 90
       33
 70
   128
 43
0.0
 10
343.7379235386
 20
113.3386109559
 10
344.13180754
 20
113.0090257282
 10
344.4369907874
 20
112.6465642101
 10
344.6463695369
 20
112.2596634107
 10
344.7550700836
 20
111.8573292119
 10
344.7605622072
 20
111.4489267384
 10
344.6627180676
 20
111.043962366
 10
344.4638151809
 20
110.6518624418
 10
344.1684834053
 20
110.2817538678
 10
343.7835971725
 20
109.9422516533
 10
343.3181154712
 20
109.6412583843
 10
342.7828733091
 20
109.3857802749
 10
342.190329507
 20
109.1817640836
 10
341.5542766945
 20
109.0339586911
 10
340.8895202596
 20
108.9458045603
 10
340.2115337239
 20
108.9193536532
 10
339.5360985658
 20
108.9552216669
 10
338.8789368754
 20
109.0525737025
 10
338.2553453915
 20
109.2091436986
 10
337.6798394401
 20
109.4212871787
 10
337.1658150612
 20
109.6840660836
 10
336.7252371894
 20
109.991363714
 10
336.3683611467
 20
110.3360271096
 10
336.1034939292
 20
110.7100335476
 10
335.9368008456
 20
111.104677288
 10
335.8721620074
 20
111.5107722168
 10
335.9110820113
 20
111.9188656708
 10
336.0526549174
 20
112.3194584672
 10
336.2935853359
 20
112.7032260159
 10
336.6282651347
 20
113.0612353677
 10
337.0489039791
 20
113.3851531463
 10
337.5457106674
 20
113.6674395245
 10
338.1071210408
 20
113.9015237282
  0
LINE
  5
1CE
330
1F
100
AcDbEntity
  8
0
  6
Continuous
 62
     7
370
    25
100
AcDbLine
 10
343.2236559653
 20
108.4259166048
 30
0.0
 11
343.8837888183
 21
107.8604743579
 31
0.0
  0
ARC
  5
1CF
330
1F
100
AcDbEntity
  8
0
  6
Continuous
 62
     7
370
    25
100
AcDbCircle
 10
340.9678084777
 20
115.1915881609
 30
0.0
 40
7.131841241321173
100
AcDbArc
 50
288.4397018805
 51
297.7690822762
  0
LINE
  5
1D0
330
1F
100
AcDbEntity
  8
0
  6
Continuous
 62
     7
370
    25
100
AcDbLine
 10
344.9507320515
 20
108.3156608837
 30
0.0
 11
344.2905991985
 21
108.8811031306
 31
0.0
  0
ARC
  5
1D1
330
1F
100
AcDbEntity
  8
0
  6
Continuous
 62
     7
370
    25
100
AcDbCircle
 10
341.0927378494
 20
115.8806464332
 30
0.0
 40
8.491944749433753
100
AcDbArc
 50
289.1880946973
 51
297.0206894594
  0
LINE
  5
1D2
330
1F
100
AcDbEntity
  8
0
  6
Continuous
 62
     7
370
    25
100
AcDbLine
 10
343.8837888183
 20
107.8604743579
 30
0.0
 11
343.8857584147
 21
107.7007262303
 31
0.0
  0
LINE
  5
1D3
330
1F
100
AcDbEntity
  8
0
  6
Continuous
 62
     7
370
    25
100
AcDbLine
 10
344.9507320515
 20
108.3156608837
 30
0.0
 11
344.9527016479
 21
108.1559127561
 31
0.0
  0
LINE
  5
1D4
330
1F
100
AcDbEntity
  8
0
  6
Continuous
 62
     7
370
    25
100
AcDbLine
 10
343.2236559653
 20
108.4259166048
 30
0.0
 11
343.2256255616
 21
108.2661684772
 31
0.0
  0
LINE
  5
1D5
330
1F
100
AcDbEntity
  8
0
  6
Continuous
 62
     7
370
    25
100
AcDbLine
 10
343.7379235386
 20
113.3386109559
 30
0.0
 11
343.7398931349
 21
113.1788628282
 31
0.0
  0
LINE
  5
1D6
330
1F
100
AcDbEntity
  8
0
  6
Continuous
 62
     7
370
    25
100
AcDbLine
 10
338.1071210408
 20
113.9015237282
 30
0.0
 11
338.1090906371
 21
113.7417756005
 31
0.0
  0
LINE
  5
1D7
330
1F
100
AcDbEntity
  8
0
  6
Continuous
 62
     7
370
    25
100
AcDbLine
 10
341.0084141972
 20
111.6924857986
 30
0.0
 11
342.2259145044
 21
115.788961461
 31
0.0
  0
LINE
  5
1D8
330
1F
100
AcDbEntity
  8
0
  6
Continuous
 62
     7
370
    25
100
AcDbLine
 10
343.1959928581
 20
109.818697231
 30
0.0
 11
341.0084141972
 21
111.6924857986
 31
0.0
  0
ARC
  5
1D9
330
1F
100
AcDbEntity
  8
0
  6
Continuous
 62
     7
370
    25
100
AcDbCircle
 10
340.7602711239
 20
114.0499198073
 30
0.0
 40
4.882211062281303
100
AcDbArc
 50
286.2817139007
 51
299.927070256
  0
LINE
  5
1DA
330
1F
100
AcDbEntity
  8
0
  6
Continuous
 62
     7
370
    25
100
AcDbLine
 10
339.6338722142
 20
111.5007755223
 30
0.0
 11
342.1290496249
 21
109.3635107052
 31
0.0
  0
LINE
  5
1DB
330
1F
100
AcDbEntity
  8
0
  6
Continuous
 62
     7
370
    25
100
AcDbLine
 10
340.9463677973
 20
115.916878074
 30
0.0
 11
339.6338722142
 21
111.5007755223
 31
0.0
  0
ARC
  5
1DC
330
1F
100
AcDbEntity
  8
0
  6
Continuous
 62
     7
370
    25
100
AcDbCircle
 10
340.4373786843
 20
104.3618773098
 30
0.0
 40
11.56620562577189
100
AcDbArc
 50
81.1043939252
 51
87.4777943719
  0
LINE
  5
1DD
330
1F
100
AcDbEntity
  8
0
  6
Continuous
 62
     7
370
    25
100
AcDbLine
 10
342.1290496249
 20
109.3635107052
 30
0.0
 11
342.1310192213
 21
109.2037625776
 31
0.0
  0
LINE
  5
1DE
330
1F
100
AcDbEntity
  8
0
  6
Continuous
 62
     7
370
    25
100
AcDbLine
 10
343.1959928581
 20
109.818697231
 30
0.0
 11
343.1979624544
 21
109.6589491033
 31
0.0
  0
LINE
  5
1DF
330
1F
100
AcDbEntity
  8
0
  6
Continuous
 62
     7
370
    25
100
AcDbLine
 10
339.6338722142
 20
111.5007755223
 30
0.0
 11
339.6358418105
 21
111.3410273947
 31
0.0
  0
LINE
  5
1E0
330
1F
100
AcDbEntity
  8
0
  6
Continuous
 62
     7
370
    25
100
AcDbLine
 10
342.2259145044
 20
115.788961461
 30
0.0
 11
342.2278841008
 21
115.6292133334
 31
0.0
  0
LINE
  5
1E1
330
1F
100
AcDbEntity
  8
0
  6
Continuous
 62
     7
370
    25
100
AcDbLine
 10
342.0231433757
 20
114.0836690592
 30
0.0
 11
342.0251129721
 21
113.9239209315
 31
0.0
  0
ARC
  5
1E2
330
1F
100
AcDbEntity
  8
0
  6
Continuous
 62
     7
370
    25
100
AcDbCircle
 10
340.8648429629
 20
109.0354770779
 30
0.0
 40
5.179372754140418
100
AcDbArc
 50
58.9282867447
 51
77.0772465263
  0
LINE
  5
1E3
330
1F
100
AcDbEntity
  8
0
  6
Continuous
 62
     7
370
    25
100
AcDbLine
 10
343.537971778
 20
113.4717237419
 30
0.0
 11
343.5399413743
 21
113.3119756143
 31
0.0
  0
LINE
  5
1E4
330
1F
100
AcDbEntity
  8
0
  6
Continuous
 62
     7
370
    25
100
AcDbLine
 10
342.256639596
 20
114.8693046584
 30
0.0
 11
342.0231433757
 21
114.0836690592
 31
0.0
  0
ARC
  5
1E5
330
1F
100
AcDbEntity
  8
0
  6
Continuous
 62
     7
370
    25
100
AcDbCircle
 10
340.9697056855
 20
108.1875867094
 30
0.0
 40
6.804524497690317
100
AcDbArc
 50
58.3731861647
 51
79.0980334467
  0
LINE
  5
1E6
330
1F
100
AcDbEntity
  8
0
  6
Continuous
 62
     7
370
    25
100
AcDbLine
 10
343.537971778
 20
113.4717237419
 30
0.0
 11
344.5378925082
 21
113.981514258
 31
0.0
  0
LINE
  5
1E7
330
1F
100
AcDbEntity
  8
0
  6
Continuous
 62
     7
370
    25
100
AcDbLine
 10
344.5378925082
 20
113.981514258
 30
0.0
 11
344.5398621046
 21
113.8217661303
 31
0.0
  0
LINE
  5
1E8
330
1F
100
AcDbEntity
  8
0
  6
Continuous
 62
     7
370
    25
100
AcDbLine
 10
337.724441171
 20
114.6626567385
 30
0.0
 11
338.3723747354
 21
113.9881298053
 31
0.0
  0
ARC
  5
1E9
330
1F
100
AcDbEntity
  8
0
  6
Continuous
 62
     7
370
    25
100
AcDbCircle
 10
340.3608085565
 20
106.0310552559
 30
0.0
 40
9.025241112897607
100
AcDbArc
 50
89.8366917203
 51
106.9843488569
  0
LINE
  5
1EA
330
1F
100
AcDbEntity
  8
0
  6
Continuous
 62
     7
370
    25
100
AcDbLine
 10
340.15303665
 20
114.270624109
 30
0.0
 11
340.3865328702
 21
115.0562597082
 31
0.0
  0
ARC
  5
1EB
330
1F
100
AcDbEntity
  8
0
  6
Continuous
 62
     7
370
    25
100
AcDbCircle
 10
340.342710095
 20
107.3217256814
 30
0.0
 40
6.951486558512861
100
AcDbArc
 50
91.5635269806
 51
106.4656740752
  0
LINE
  5
1EC
330
1F
100
AcDbEntity
  8
0
  6
Continuous
 62
     7
370
    25
100
AcDbLine
 10
338.3723747354
 20
113.9881298053
 30
0.0
 11
338.3743443318
 21
113.8283816777
 31
0.0
  0
LINE
  5
1ED
330
1F
100
AcDbEntity
  8
0
  6
Continuous
 62
     7
370
    25
100
AcDbLine
 10
340.15303665
 20
114.270624109
 30
0.0
 11
340.1550062463
 21
114.1108759813
 31
0.0
  0
LINE
  5
1EE
330
1F
100
AcDbEntity
  8
0
  6
Continuous
 62
     7
370
    25
100
AcDbLine
 10
337.724441171
 20
114.6626567385
 30
0.0
 11
337.7264107673
 21
114.5029086109
 31
0.0
  0
LINE
  5
1EF
330
1F
100
AcDbEntity
  8
0
  6
Continuous
 62
     7
370
    25
100
AcDbLine
 10
340.3865328702
 20
115.0562597082
 30
0.0
 11
340.3885024665
 21
114.8965115806
 31
0.0
  0
ARC
  5
1F0
330
1F
100
AcDbEntity
  8
0
  6
Continuous
 62
     7
370
    25
100
AcDbCircle
 10
339.0217580735
 20
89.188977167
 30
0.0
 40
13.0108967616945
100
AcDbArc
 50
235.0340723357
 51
293.5481159614
  0
LWPOLYLINE
  5
1F1
330
1F
100
AcDbEntity
  8
0
  6
Continuous
 62
     7
370
    25
100
AcDbPolyline
 90
       10
 70
   128
 43
0.0
 10
346.9571296109
 20
104.7380832584
 10
347.1934517702
 20
104.596954618
 10
347.4968057948
 20
104.5136063048
 10
347.8306027124
 20
104.4980913555
 10
348.1545816883
 20
104.5522811019
 10
348.4296660766
 20
104.6696394609
 10
348.6226766403
 20
104.8360112824
 10
348.7103334569
 20
105.0313296693
 10
348.6820638207
 20
105.2320363415
 10
348.5412774668
 20
105.4139231123
  0
LINE
  5
1F2
330
1F
100
AcDbEntity
  8
0
  6
Continuous
 62
     7
370
    25
100
AcDbLine
 10
345.8146541129
 20
105.7166800811
 30
0.0
 11
346.9571296109
 21
104.7380832584
 31
0.0
  0
LWPOLYLINE
  5
1F3
330
1F
100
AcDbEntity
  8
0
  6
Continuous
 62
     7
370
    25
100
AcDbPolyline
 90
       10
 70
   128
 43
0.0
 10
347.3988019689
 20
106.392519935
 10
347.1624798096
 20
106.5336485754
 10
346.8591257849
 20
106.6169968886
 10
346.5253288674
 20
106.6325118379
 10
346.2013498915
 20
106.5783220914
 10
345.9262655032
 20
106.4609637324
 10
345.7332549394
 20
106.2945919109
 10
345.6455981228
 20
106.099273524
 10
345.6738677591
 20
105.8985668518
 10
345.8146541129
 20
105.7166800811
  0
LINE
  5
1F4
330
1F
100
AcDbEntity
  8
0
  6
Continuous
 62
     7
370
    25
100
AcDbLine
 10
348.5412774668
 20
105.4139231123
 30
0.0
 11
347.3988019689
 21
106.392519935
 31
0.0
  0
LWPOLYLINE
  5
1F5
330
1F
100
AcDbEntity
  8
0
  6
Continuous
 62
     7
370
    25
100
AcDbPolyline
 90
       10
 70
   128
 43
0.0
 10
329.1023847051
 20
107.3572342156
 10
328.8647266695
 20
107.2131806276
 10
328.722228106
 20
107.0295456962
 10
328.6920764443
 20
106.8284785042
 10
328.77790842
 20
106.6342307225
 10
328.9693714299
 20
106.4702315002
 10
329.2433722093
 20
106.356261564
 10
329.5668622206
 20
106.3060673701
 10
329.900823794
 20
106.3257030793
 10
330.2049762351
 20
106.412800335
  0
LINE
  5
1F6
330
1F
100
AcDbEntity
  8
0
  6
Continuous
 62
     7
370
    25
100
AcDbLine
 10
330.2049762351
 20
106.412800335
 30
0.0
 11
331.8464273631
 21
107.1130872977
 31
0.0
  0
LINE
  5
1F7
330
1F
100
AcDbEntity
  8
0
  6
Continuous
 62
     7
370
    25
100
AcDbLine
 10
330.7438358331
 20
108.0575211783
 30
0.0
 11
329.1023847051
 21
107.3572342156
 31
0.0
  0
LWPOLYLINE
  5
1F8
330
1F
100
AcDbEntity
  8
0
  6
Continuous
 62
     7
370
    25
100
AcDbPolyline
 90
       10
 70
   128
 43
0.0
 10
331.8464273631
 20
107.1130872977
 10
332.0840853987
 20
107.2571408857
 10
332.2265839623
 20
107.4407758171
 10
332.2567356239
 20
107.641843009
 10
332.1709036483
 20
107.8360907908
 10
331.9794406384
 20
108.0000900131
 10
331.7054398589
 20
108.1140599493
 10
331.3819498477
 20
108.1642541431
 10
331.0479882743
 20
108.144618434
 10
330.7438358331
 20
108.0575211783
  0
LWPOLYLINE
  5
1F9
330
1F
100
AcDbEntity
  8
0
  6
Continuous
 62
     7
370
    25
100
AcDbPolyline
 90
       10
 70
   128
 43
0.0
 10
341.3137667665
 20
118.0611704638
 10
341.3128221593
 20
117.8595161762
 10
341.4265641466
 20
117.6707305135
 10
341.6412737661
 20
117.5175838127
 10
341.9310538689
 20
117.4185478262
 10
342.260952698
 20
117.3855677555
 10
342.5911795856
 20
117.4226214839
 10
342.8819042957
 20
117.5252397849
 10
343.0980611374
 20
117.6810453769
 10
343.2135784055
 20
117.8712458061
  0
LINE
  5
1FA
330
1F
100
AcDbEntity
  8
0
  6
Continuous
 62
     7
370
    25
100
AcDbLine
 10
343.2135784055
 20
117.8712458061
 30
0.0
 11
343.5664074572
 21
119.0583959156
 31
0.0
  0
LINE
  5
1FB
330
1F
100
AcDbEntity
  8
0
  6
Continuous
 62
     7
370
    25
100
AcDbLine
 10
341.6665958181
 20
119.2483205732
 30
0.0
 11
341.3137667665
 21
118.0611704638
 31
0.0
  0
LWPOLYLINE
  5
1FC
330
1F
100
AcDbEntity
  8
0
  6
Continuous
 62
     7
370
    25
100
AcDbPolyline
 90
       10
 70
   128
 43
0.0
 10
343.5664074572
 20
119.0583959156
 10
343.5673520644
 20
119.2600502032
 10
343.4536100771
 20
119.4488358659
 10
343.2389004575
 20
119.6019825666
 10
342.9491203547
 20
119.7010185532
 10
342.6192215257
 20
119.7339986239
 10
342.288994638
 20
119.6969448955
 10
341.998269928
 20
119.5943265945
 10
341.7821130863
 20
119.4385210024
 10
341.6665958181
 20
119.2483205732
  0
ARC
  5
1FD
330
1F
100
AcDbEntity
  8
0
  6
Continuous
 62
     7
370
    25
100
AcDbCircle
 10
338.733917935
 20
114.6250344252
 30
0.0
 40
14.77959744334635
100
AcDbArc
 50
235.2828508722
 51
293.2993374249
  0
ARC
  5
1FE
330
1F
100
AcDbEntity
  8
0
  6
Continuous
 62
     7
370
    25
100
AcDbCircle
 10
343.9142591344
 20
100.3625899642
 30
0.0
 40
0.957283218586312
100
AcDbArc
 50
3.0597232268
 51
45.9566907989
  0
ARC
  5
1FF
330
1F
100
AcDbEntity
  8
0
  6
Continuous
 62
     7
370
    25
100
AcDbCircle
 10
338.7334116447
 20
114.5931562945
 30
0.0
 40
15.45047747624667
100
AcDbArc
 50
235.1795961629
 51
293.4025921342
  0
ARC
  5
200
330
1F
100
AcDbEntity
  8
0
  6
Continuous
 62
     7
370
    25
100
AcDbCircle
 10
330.5873465694
 20
101.8545249087
 30
0.0
 40
0.6784521768156173
100
AcDbArc
 50
113.5234994708
 51
175.381882694
  0
LINE
  5
201
330
1F
100
AcDbEntity
  8
0
  6
Continuous
 62
     7
370
    25
100
AcDbLine
 10
344.8701776873
 20
100.4136867423
 30
0.0
 11
345.1557438519
 21
88.781790459
 31
0.0
  0
ARC
  5
202
330
1F
100
AcDbEntity
  8
0
  6
Continuous
 62
     7
370
    25
100
AcDbCircle
 10
339.1256507229
 20
103.2473024392
 30
0.0
 40
15.67204709003894
100
AcDbArc
 50
276.6854954934
 51
292.6293021893
  0
LINE
  5
203
330
1F
100
AcDbEntity
  8
0
  6
Continuous
 62
     7
370
    25
100
AcDbLine
 10
340.9461197133
 20
88.1839255485
 30
0.0
 11
340.9501796443
 21
87.6818228704
 31
0.0
  0
SPLINE
  5
204
330
1F
100
AcDbEntity
  8
0
  6
Continuous
 62
     7
370
    25
100
AcDbSpline
210
0.0
220
0.0
230
1.0
 70
     8
 71
     3
 72
    10
 73
     6
 74
     0
 42
0.000000001
 43
0.00000001
 40
0.0
 40
0.0
 40
0.0
 40
0.0
 40
0.5
 40
0.5
 40
1.0
 40
1.0
 40
1.0
 40
1.0
 10
340.5877977948406
 20
88.67224455580228
 30
0.0
 10
340.6953953945263
 20
88.62459207646316
 30
0.0
 10
340.7852413489194
 20
88.55642580829122
 30
0.0
 10
340.9102296139747
 20
88.38919180601675
 30
0.0
 10
340.9452664983987
 20
88.28944894078644
 30
0.0
 10
340.9461197133251
 20
88.18392554854036
 30
0.0
  0
ELLIPSE
  5
205
330
1F
100
AcDbEntity
  8
0
  6
Continuous
 62
     7
370
    25
100
AcDbEllipse
 10
338.9694131527
 20
97.1343969702
 30
0.0
 11
10.23983889836069
 21
-8.405362556866635
 31
0.0
210
0.0
220
0.0
230
1.0
 40
0.4805100372
 41
5.226670425336508
 42
5.235640710831841
  0
SPLINE
  5
206
330
1F
100
AcDbEntity
  8
0
  6
Continuous
 62
     7
370
    25
100
AcDbSpline
210
0.0
220
0.0
230
1.0
 70
     8
 71
     3
 72
     8
 73
     4
 74
     0
 42
0.000000001
 43
0.00000001
 40
0.0
 40
0.0
 40
0.0
 40
0.0
 40
1.0
 40
1.0
 40
1.0
 40
1.0
 10
340.4009668588224
 20
88.83953883298001
 30
0.0
 10
340.4013960789983
 20
88.78692973435409
 30
0.0
 10
340.4363718765174
 20
88.73996138610134
 30
0.0
 10
340.4900659415954
 20
88.71583934401919
 30
0.0
  0
LINE
  5
207
330
1F
100
AcDbEntity
  8
0
  6
Continuous
 62
     7
370
    25
100
AcDbLine
 10
340.3963557729
 20
89.4047323602
 30
0.0
 11
340.4009668588
 21
88.839538833
 31
0.0
  0
SPLINE
  5
208
330
1F
100
AcDbEntity
  8
0
  6
Continuous
 62
     7
370
    25
100
AcDbSpline
210
0.0
220
0.0
230
1.0
 70
     8
 71
     3
 72
    12
 73
     8
 74
     0
 42
0.000000001
 43
0.00000001
 40
0.0
 40
0.0
 40
0.0
 40
0.0
 40
0.2499999999999992
 40
0.2499999999999992
 40
0.4999999999999984
 40
0.4999999999999984
 40
1.0
 40
1.0
 40
1.0
 40
1.0
 10
339.5628974942093
 20
89.99402533841392
 30
0.0
 10
339.6690154263274
 20
89.99906512655147
 30
0.0
 10
339.7754644337303
 20
89.98876418045978
 30
0.0
 10
339.9740750122162
 20
89.93828770427861
 30
0.0
 10
340.0653134156773
 20
89.89860092083327
 30
0.0
 10
340.3002416389991
 20
89.73831205785027
 30
0.0
 10
340.3949333795253
 20
89.57908435939498
 30
0.0
 10
340.3963557728952
 20
89.4047323601807
 30
0.0
  0
ARC
  5
209
330
1F
100
AcDbEntity
  8
0
  6
Continuous
 62
     7
370
    25
100
AcDbCircle
 10
338.6826437465
 20
107.3912898502
 30
0.0
 40
17.41951948684641
100
AcDbArc
 50
255.6856495044
 51
272.8965387927
  0
SPLINE
  5
20A
330
1F
100
AcDbEntity
  8
0
  6
Continuous
 62
     7
370
    25
100
AcDbSpline
210
0.0
220
0.0
230
1.0
 70
     8
 71
     3
 72
    12
 73
     8
 74
     0
 42
0.000000001
 43
0.00000001
 40
0.0
 40
0.0
 40
0.0
 40
0.0
 40
0.2500000000000013
 40
0.2500000000000013
 40
0.5000000000000026
 40
0.5000000000000026
 40
1.0
 40
1.0
 40
1.0
 40
1.0
 10
333.634443559214
 20
90.08072246134057
 30
0.0
 10
333.6337323752098
 20
90.16789690659749
 30
0.0
 10
333.653190874602
 20
90.24717712728551
 30
0.0
 10
333.7283418723991
 20
90.38132041315602
 30
0.0
 10
333.7842054285709
 20
90.43574932650732
 30
0.0
 10
333.9899499356887
 20
90.55065580819465
 30
0.0
 10
334.1813678278027
 20
90.56335938308271
 30
0.0
 10
334.3758119969605
 20
90.51257960815373
 30
0.0
  0
LINE
  5
20B
330
1F
100
AcDbEntity
  8
0
  6
Continuous
 62
     7
370
    25
100
AcDbLine
 10
333.6390546451
 20
89.5155289341
 30
0.0
 11
333.6344435592
 21
90.0807224613
 31
0.0
  0
SPLINE
  5
20C
330
1F
100
AcDbEntity
  8
0
  6
Continuous
 62
     7
370
    25
100
AcDbSpline
210
0.0
220
0.0
230
1.0
 70
     8
 71
     3
 72
     8
 73
     4
 74
     0
 42
0.000000001
 43
0.00000001
 40
0.0
 40
0.0
 40
0.0
 40
0.0
 40
1.0
 40
1.0
 40
1.0
 40
1.0
 10
333.5620561551128
 20
89.40843426220283
 30
0.0
 10
333.6084841525293
 20
89.42227980745736
 30
0.0
 10
333.6394792784425
 20
89.4634820442764
 30
0.0
 10
333.6390546451412
 20
89.5155289341398
 30
0.0
  0
ELLIPSE
  5
20D
330
1F
100
AcDbEntity
  8
0
  6
Continuous
 62
     7
370
    25
100
AcDbEllipse
 10
338.7032445976
 20
97.1610059091
 30
0.0
 11
10.52928616794389
 21
7.3325130141438
 31
0.0
210
0.0
220
0.0
230
1.0
 40
0.3612679145
 41
3.963667323752027
 42
3.972637609247371
  0
SPLINE
  5
20E
330
1F
100
AcDbEntity
  8
0
  6
Continuous
 62
     7
370
    25
100
AcDbSpline
210
0.0
220
0.0
230
1.0
 70
     8
 71
     3
 72
    10
 73
     6
 74
     0
 42
0.000000001
 43
0.00000001
 40
0.0
 40
0.0
 40
0.0
 40
0.0
 40
0.5
 40
0.5
 40
1.0
 40
1.0
 40
1.0
 40
1.0
 10
333.170412800941
 20
88.96126496617676
 30
0.0
 10
333.1695597283291
 20
89.06677075734154
 30
0.0
 10
333.1983028273344
 20
89.15987525556534
 30
0.0
 10
333.3048825652075
 20
89.3042431700554
 30
0.0
 10
333.3824421366
 20
89.35567210140016
 30
0.0
 10
333.476481173664
 20
89.38316470534257
 30
0.0
  0
LINE
  5
20F
330
1F
100
AcDbEntity
  8
0
  6
Continuous
 62
     7
370
    25
100
AcDbLine
 10
333.1744727319
 20
88.459162288
 30
0.0
 11
333.1704128009
 21
88.9612649662
 31
0.0
  0
ARC
  5
210
330
1F
100
AcDbEntity
  8
0
  6
Continuous
 62
     7
370
    25
100
AcDbCircle
 10
336.5691856554
 20
98.4703707862
 30
0.0
 40
10.57111022681362
100
AcDbArc
 50
230.5101450921
 51
251.268653365
  0
LINE
  5
211
330
1F
100
AcDbEntity
  8
0
  6
Continuous
 62
     7
370
    25
100
AcDbLine
 10
329.9110970085
 20
101.9091498808
 30
0.0
 11
329.8465770901
 21
90.3122517932
 31
0.0
  0
LINE
  5
212
330
1F
100
AcDbEntity
  8
0
  6
Continuous
 62
     7
370
    25
100
AcDbLine
 10
341.5338082701
 20
119.2615953785
 30
0.0
 11
341.1809792185
 21
118.0744452691
 31
0.0
  0
LWPOLYLINE
  5
213
330
1F
100
AcDbEntity
  8
0
  6
Continuous
 62
     7
370
    25
100
AcDbPolyline
 90
       11
 70
   128
 43
0.0
 10
341.1809792185
 20
118.0744452691
 10
341.1740034085
 20
117.8673805094
 10
341.2736920097
 20
117.6699896862
 10
341.4702868074
 20
117.5015947887
 10
341.744543733
 20
117.3786794827
 10
342.0696166076
 20
117.3132755747
 10
342.4136850335
 20
117.311785255
 10
342.7430691958
 20
117.3743544064
 10
343.0255266778
 20
117.4948583244
 10
343.2334085732
 20
117.661501246
 10
343.3463659536
 20
117.8579710009
  0
LINE
  5
214
330
1F
100
AcDbEntity
  8
0
  6
Continuous
 62
     7
370
    25
100
AcDbLine
 10
343.3463659536
 20
117.8579710009
 30
0.0
 11
343.6991950052
 21
119.0451211103
 31
0.0
  0
LWPOLYLINE
  5
215
330
1F
100
AcDbEntity
  8
0
  6
Continuous
 62
     7
370
    25
100
AcDbPolyline
 90
       11
 70
   128
 43
0.0
 10
343.6991950052
 20
119.0451211103
 10
343.7061708152
 20
119.25218587
 10
343.6064822139
 20
119.4495766932
 10
343.4098874162
 20
119.6179715906
 10
343.1356304907
 20
119.7408868967
 10
342.810557616
 20
119.8062908046
 10
342.4664891902
 20
119.8077811244
 10
342.1371050278
 20
119.745211973
 10
341.8546475458
 20
119.624708055
 10
341.6467656505
 20
119.4580651334
 10
341.5338082701
 20
119.2615953785
  0
LWPOLYLINE
  5
216
330
1F
100
AcDbEntity
  8
0
  6
Continuous
 62
     7
370
    25
100
AcDbPolyline
 90
       11
 70
   128
 43
0.0
 10
347.5095261613
 20
106.4397578375
 10
347.2711656867
 20
106.5872285484
 10
346.9677654259
 20
106.6825618668
 10
346.6290243104
 20
106.7164259031
 10
346.2881006807
 20
106.6855058096
 10
345.978366517
 20
106.5928282605
 10
345.7301407573
 20
106.44746518
 10
345.5677214685
 20
106.2636457191
 10
345.5070073822
 20
106.0593634076
 10
345.5539416161
 20
105.8546148213
 10
345.7039299205
 20
105.6694421785
  0
LINE
  5
217
330
1F
100
AcDbEntity
  8
0
  6
Continuous
 62
     7
370
    25
100
AcDbLine
 10
345.7039299205
 20
105.6694421785
 30
0.0
 11
346.8464054185
 21
104.6908453558
 31
0.0
  0
LWPOLYLINE
  5
218
330
1F
100
AcDbEntity
  8
0
  6
Continuous
 62
     7
370
    25
100
AcDbPolyline
 90
       11
 70
   128
 43
0.0
 10
346.8464054185
 20
104.6908453558
 10
347.0847658931
 20
104.5433746449
 10
347.3881661538
 20
104.4480413266
 10
347.7269072693
 20
104.4141772902
 10
348.0678308991
 20
104.4450973837
 10
348.3775650627
 20
104.5377749328
 10
348.6257908224
 20
104.6831380134
 10
348.7882101113
 20
104.8669574742
 10
348.8489241976
 20
105.0712397857
 10
348.8019899637
 20
105.275988372
 10
348.6520016593
 20
105.4611610148
  0
LINE
  5
219
330
1F
100
AcDbEntity
  8
0
  6
Continuous
 62
     7
370
    25
100
AcDbLine
 10
348.6520016593
 20
105.4611610148
 30
0.0
 11
347.5095261613
 21
106.4397578375
 31
0.0
  0
LWPOLYLINE
  5
21A
330
1F
100
AcDbEntity
  8
0
  6
Continuous
 62
     7
370
    25
100
AcDbPolyline
 90
       11
 70
   128
 43
0.0
 10
329.0253189463
 20
107.4232455278
 10
328.7770931866
 20
107.2778824472
 10
328.6146738977
 20
107.0940629864
 10
328.5539598114
 20
106.8897806749
 10
328.6008940453
 20
106.6850320886
 10
328.7508823497
 20
106.4998594458
 10
328.9892428243
 20
106.3523887349
 10
329.2926430851
 20
106.2570554165
 10
329.6313842006
 20
106.2231913802
 10
329.9723078303
 20
106.2541114737
 10
330.282041994
 20
106.3467890228
  0
LINE
  5
21B
330
1F
100
AcDbEntity
  8
0
  6
Continuous
 62
     7
370
    25
100
AcDbLine
 10
330.282041994
 20
106.3467890228
 30
0.0
 11
331.923493122
 21
107.0470759855
 31
0.0
  0
LWPOLYLINE
  5
21C
330
1F
100
AcDbEntity
  8
0
  6
Continuous
 62
     7
370
    25
100
AcDbPolyline
 90
       11
 70
   128
 43
0.0
 10
331.923493122
 20
107.0470759855
 10
332.1717188817
 20
107.192439066
 10
332.3341381705
 20
107.3762585269
 10
332.3948522569
 20
107.5805408384
 10
332.3479180229
 20
107.7852894247
 10
332.1979297185
 20
107.9704620675
 10
331.9595692439
 20
108.1179327784
 10
331.6561689832
 20
108.2132660967
 10
331.3174278677
 20
108.2471301331
 10
330.9765042379
 20
108.2162100396
 10
330.6667700742
 20
108.1235324905
  0
LINE
  5
21D
330
1F
100
AcDbEntity
  8
0
  6
Continuous
 62
     7
370
    25
100
AcDbLine
 10
330.6667700742
 20
108.1235324905
 30
0.0
 11
329.0253189463
 21
107.4232455278
 31
0.0
  0
LWPOLYLINE
  5
21E
330
1F
100
AcDbEntity
  8
0
  6
Continuous
 62
     7
370
    25
100
AcDbPolyline
 90
       55
 70
   128
 43
0.0
 10
334.1858792418
 20
108.818574515
 10
334.7232806664
 20
108.411508213
 10
335.3364102144
 20
108.0453549088
 10
336.0169763602
 20
107.7250661976
 10
336.7557756142
 20
107.4549734347
 10
337.542816984
 20
107.2387291615
 10
338.3674570852
 20
107.0792577107
 10
339.2185440751
 20
106.9787156603
 10
340.0845684622
 20
106.9384626689
 10
340.9538187522
 20
106.9590430892
 10
341.8145398262
 20
107.0401786062
 10
342.6550919082
 20
107.1807720015
 10
343.4641079733
 20
107.3789219904
 10
344.230647467
 20
107.6319489342
 10
344.9443442577
 20
107.9364310777
 10
345.5955468206
 20
108.2882508221
 10
346.1754487582
 20
108.682650409
 10
346.6762078916
 20
109.1142962605
 10
347.0910523125
 20
109.577351107
 10
347.4143719618
 20
110.065552926
 10
347.6417944959
 20
110.5722996255
 10
347.7702444152
 20
111.0907383256
 10
347.7979846549
 20
111.6138580323
 10
347.7246400757
 20
112.134584449
 10
347.5512025374
 20
112.6458756442
 10
347.2800174851
 20
113.1408172815
 10
346.9147522315
 20
113.6127161245
 10
346.4603463623
 20
114.0551905507
 10
345.9229449376
 20
114.4622568526
 10
345.3098153897
 20
114.8284101569
 10
344.6292492439
 20
115.1486988681
 10
343.8904499899
 20
115.418791631
 10
343.1034086201
 20
115.6350359042
 10
342.2787685188
 20
115.7945073549
 10
341.427681529
 20
115.8950494054
 10
340.5616571419
 20
115.9353023968
 10
339.6924068519
 20
115.9147219765
 10
338.8316857779
 20
115.8335864594
 10
337.9911336959
 20
115.6929930642
 10
337.1821176308
 20
115.4948430753
 10
336.415578137
 20
115.2418161315
 10
335.7018813464
 20
114.937333988
 10
335.0506787834
 20
114.5855142436
 10
334.4707768459
 20
114.1911146567
 10
333.9700177125
 20
113.7594688052
 10
333.5551732916
 20
113.2964139587
 10
333.2318536423
 20
112.8082121396
 10
333.0044311082
 20
112.3014654402
 10
332.8759811889
 20
111.78302674
 10
332.8482409492
 20
111.2599070333
 10
332.9215855283
 20
110.7391806166
 10
333.0950230666
 20
110.2278894215
 10
333.366208119
 20
109.7329477841
 10
333.7314733726
 20
109.2610489412
 10
334.1858792418
 20
108.818574515
  0
LINE
  5
21F
330
1F
100
AcDbEntity
  8
0
  6
Continuous
 62
     7
370
    25
100
AcDbLine
 10
379.9652448968
 20
123.65805279
 30
0.0
 11
357.1157349373
 21
143.2299892439
 31
0.0
  0
LWPOLYLINE
  5
220
330
1F
100
AcDbEntity
  8
0
  6
Continuous
 62
     7
370
    25
100
AcDbPolyline
 90
       16
 70
   128
 43
0.0
 10
377.4087868183
 20
115.0564382866
 10
378.2557881944
 20
115.4589375631
 10
379.0293788614
 20
115.9119587265
 10
379.7210831983
 20
116.4105383821
 10
380.3233227474
 20
116.9492139869
 10
380.8294992464
 20
117.5220836983
 10
381.2340669195
 20
118.1228710358
 10
381.5325932386
 20
118.7449936477
 10
381.721807487
 20
119.3816354283
 10
381.7996365937
 20
120.0258211971
 10
381.7652278468
 20
120.6704931201
 10
381.6189582356
 20
121.3085880367
 10
381.3624303208
 20
121.9331148456
 10
380.9984546756
 20
122.5372311002
 10
380.5310190936
 20
123.1143179765
 10
379.9652448968
 20
123.65805279
  0
LINE
  5
221
330
1F
100
AcDbEntity
  8
0
  6
Continuous
 62
     7
370
    25
100
AcDbLine
 10
344.5797642586
 20
101.0506990327
 30
0.0
 11
377.4087868183
 21
115.0564382866
 31
0.0
  0
LINE
  5
222
330
1F
100
AcDbEntity
  8
0
  6
Continuous
 62
     7
370
    25
100
AcDbLine
 10
307.4670492755
 20
122.0485317571
 30
0.0
 11
330.3165592349
 21
102.4765953032
 31
0.0
  0
LWPOLYLINE
  5
223
330
1F
100
AcDbEntity
  8
0
  6
Continuous
 62
     7
370
    25
100
AcDbPolyline
 90
       16
 70
   128
 43
0.0
 10
310.023507354
 20
130.6501462604
 10
309.1765059779
 20
130.2476469839
 10
308.4029153109
 20
129.7946258205
 10
307.711210974
 20
129.2960461649
 10
307.1089714249
 20
128.7573705601
 10
306.6027949259
 20
128.1845008487
 10
306.1982272528
 20
127.5837135112
 10
305.8997009337
 20
126.9615908994
 10
305.7104866853
 20
126.3249491187
 10
305.6326575786
 20
125.6807633499
 10
305.6670663255
 20
125.0360914269
 10
305.8133359366
 20
124.3979965103
 10
306.0698638515
 20
123.7734697015
 10
306.4338394967
 20
123.1693534468
 10
306.9012750787
 20
122.5922665705
 10
307.4670492755
 20
122.0485317571
  0
LINE
  5
224
330
1F
100
AcDbEntity
  8
0
  6
Continuous
 62
     7
370
    25
100
AcDbLine
 10
342.8525299137
 20
144.6558855143
 30
0.0
 11
310.023507354
 21
130.6501462604
 31
0.0
  0
ARC
  5
225
330
1F
100
AcDbEntity
  8
0
  6
Continuous
 62
     7
370
    25
100
AcDbCircle
 10
348.6983762373
 20
131.0815501218
 30
0.0
 40
14.77959744334601
100
AcDbArc
 50
55.2828508722
 51
113.2993374249
  0
ARC
  5
226
330
1F
100
AcDbEntity
  8
0
  6
Continuous
 62
     7
370
    25
100
AcDbCircle
 10
376.7432816941
 20
114.3683292181
 30
0.0
 40
0.9572832185863105
100
AcDbArc
 50
3.0597232268
 51
45.9566907989
  0
LINE
  5
227
330
1F
100
AcDbEntity
  8
0
  6
Continuous
 62
     7
370
    25
100
AcDbLine
 10
377.699200247
 20
114.4194259963
 30
0.0
 11
344.8701776873
 21
100.4136867423
 31
0.0
  0
LINE
  5
228
330
1F
100
AcDbEntity
  8
0
  6
Continuous
 62
     7
370
    25
100
AcDbLine
 10
377.699200247
 20
114.4194259963
 30
0.0
 11
377.9847664116
 21
102.787529713
 31
0.0
  0
LINE
  5
229
330
1F
100
AcDbEntity
  8
0
  6
Continuous
 62
     7
370
    25
100
AcDbLine
 10
377.9847664116
 20
102.787529713
 30
0.0
 11
345.1557438519
 21
88.781790459
 31
0.0
  0
LINE
  5
22A
330
1F
100
AcDbEntity
  8
0
  6
Continuous
 62
     7
370
    25
100
AcDbLine
 10
329.9110970085
 20
101.9091498808
 30
0.0
 11
307.0615870491
 21
121.4810863347
 31
0.0
  0
ARC
  5
22B
330
1F
100
AcDbEntity
  8
0
  6
Continuous
 62
     7
370
    25
100
AcDbCircle
 10
307.73783661
 20
121.4264613626
 30
0.0
 40
0.6784521768160581
100
AcDbArc
 50
113.5234994709
 51
175.3818826939
  0
LINE
  5
22C
330
1F
100
AcDbEntity
  8
0
  6
Continuous
 62
     7
370
    25
100
AcDbLine
 10
329.8465770901
 20
90.3122517932
 30
0.0
 11
306.9970671307
 21
109.8841882471
 31
0.0
  0
LINE
  5
22D
330
1F
100
AcDbEntity
  8
0
  6
Continuous
 62
     7
370
    25
100
AcDbLine
 10
307.0615870491
 20
121.4810863347
 30
0.0
 11
306.9970671307
 21
109.8841882471
 31
0.0
  0
LINE
  5
22E
330
1F
100
AcDbEntity
  8
0
  6
Continuous
 62
     7
370
    25
100
AcDbLine
 10
333.1744727319
 20
88.459162288
 30
0.0
 11
333.3310005477
 21
88.9858253071
 31
0.0
  0
LWPOLYLINE
  5
22F
330
1F
100
AcDbEntity
  8
0
  6
Continuous
 62
     7
370
    25
100
AcDbPolyline
 90
       12
 70
   128
 43
0.0
 10
382.6975443174
 20
108.3915103191
 10
382.697884779
 20
108.3811588415
 10
382.6654154694
 20
107.7318539327
 10
382.5273639035
 20
107.0867585766
 10
382.2850595934
 20
106.4520853941
 10
381.9408360621
 20
105.8339466349
 10
381.4980083703
 20
105.2382953132
 10
380.9608411909
 20
104.6708678768
 10
380.3345077373
 20
104.1371289621
 10
379.6250399431
 20
103.6422187667
 10
378.839270371
 20
103.1909035462
 10
377.9847664116
 20
102.787529713
  0
LINE
  5
230
330
1F
100
AcDbEntity
  8
0
  6
Continuous
 62
     7
370
    25
100
AcDbLine
 10
305.1368622335
 20
125.056171529
 30
0.0
 11
305.1356671307
 21
125.1964948148
 31
0.0
  0
ARC
  5
231
330
1F
100
AcDbEntity
  8
0
  6
Continuous
 62
     7
370
    25
100
AcDbCircle
 10
309.9135304417
 20
113.8079886413
 30
0.0
 40
4.888963875665992
100
AcDbArc
 50
181.4233579172
 51
233.3774950679
  0
SPLINE
  5
232
330
1F
100
AcDbEntity
  8
0
  6
Continuous
 62
     7
370
    25
100
AcDbSpline
210
0.0
220
0.0
230
1.0
 70
     8
 71
     3
 72
    12
 73
     8
 74
     0
 42
0.000000001
 43
0.00000001
 40
0.0
 40
0.0
 40
0.0
 40
0.0
 40
0.2500000000000006
 40
0.2500000000000006
 40
0.5000000000000013
 40
0.5000000000000013
 40
1.0
 40
1.0
 40
1.0
 40
1.0
 10
333.1777570768245
 20
88.22065026773534
 30
0.0
 10
333.1791832988124
 20
88.13520849632569
 30
0.0
 10
333.2008891378935
 20
88.04387220217774
 30
0.0
 10
333.2799083731256
 20
87.86270116018335
 30
0.0
 10
333.3374110683601
 20
87.7730870962671
 30
0.0
 10
333.5459074821905
 20
87.5319405217597
 30
0.0
 10
333.7357534968347
 20
87.4063092338831
 30
0.0
 10
333.9274414469372
 20
87.34948649605548
 30
0.0
  0
ARC
  5
233
330
1F
100
AcDbEntity
  8
0
  6
Continuous
 62
     7
370
    25
100
AcDbCircle
 10
338.7303534283
 20
104.0693187221
 30
0.0
 40
17.39599819408473
100
AcDbArc
 50
253.972844207
 51
274.6093440901
  0
SPLINE
  5
234
330
1F
100
AcDbEntity
  8
0
  6
Continuous
 62
     7
370
    25
100
AcDbSpline
210
0.0
220
0.0
230
1.0
 70
     8
 71
     3
 72
    12
 73
     8
 74
     0
 42
0.000000001
 43
0.00000001
 40
0.0
 40
0.0
 40
0.0
 40
0.0
 40
0.2500000000000007
 40
0.2500000000000007
 40
0.5000000000000013
 40
0.5000000000000013
 40
1.0
 40
1.0
 40
1.0
 40
1.0
 10
340.1283216428889
 20
86.72958290983911
 30
0.0
 10
340.2348550808767
 20
86.73773074634774
 30
0.0
 10
340.3410946732382
 20
86.7625554655775
 30
0.0
 10
340.5391798610594
 20
86.84227219326345
 30
0.0
 10
340.629937215121
 20
86.89646602215964
 30
0.0
 10
340.8630974944293
 20
87.09545869624814
 30
0.0
 10
340.9563176439143
 20
87.27235477514886
 30
0.0
 10
340.9534639892086
 20
87.44331085009897
 30
0.0
  0
LINE
  5
235
330
1F
100
AcDbEntity
  8
0
  6
Continuous
 62
     7
370
    25
100
AcDbLine
 10
340.9534639892
 20
87.4433108501
 30
0.0
 11
340.9521492407
 21
87.5220747427
 31
0.0
  0
ARC
  5
236
330
1F
100
AcDbEntity
  8
0
  6
Continuous
 62
     7
370
    25
100
AcDbCircle
 10
339.1276203192
 20
103.0875543116
 30
0.0
 40
15.6720470900384
100
AcDbArc
 50
276.6854954934
 51
292.6293021893
  0
LINE
  5
237
330
1F
100
AcDbEntity
  8
0
  6
Continuous
 62
     7
370
    25
100
AcDbLine
 10
345.1570087226
 20
84.0949926995
 30
0.0
 11
345.1577134482
 21
88.6220423314
 31
0.0
  0
SPLINE
  5
238
330
1F
100
AcDbEntity
  8
0
  6
Continuous
 62
     7
370
    25
100
AcDbSpline
210
0.0
220
0.0
230
1.0
 70
     8
 71
     3
 72
    16
 73
    12
 74
     0
 42
0.000000001
 43
0.00000001
 40
0.0
 40
0.0
 40
0.0
 40
0.0
 40
0.250000000000002
 40
0.250000000000002
 40
0.3750000000000026
 40
0.3750000000000026
 40
0.5000000000000032
 40
0.5000000000000032
 40
0.7500000000000017
 40
0.7500000000000017
 40
1.0
 40
1.0
 40
1.0
 40
1.0
 10
341.683822019516
 20
84.15430266033795
 30
0.0
 10
342.0207772984946
 20
84.21001819299268
 30
0.0
 10
342.3485683304251
 20
84.25358480347197
 30
0.0
 10
342.8268706988879
 20
84.29790443076236
 30
0.0
 10
342.9840678689337
 20
84.30915284883514
 30
0.0
 10
343.2939730322381
 20
84.32383843515494
 30
0.0
 10
343.4473676806639
 20
84.32724205178025
 30
0.0
 10
343.8917088134123
 20
84.32444228600858
 30
0.0
 10
344.1692445310917
 20
84.30559623531222
 30
0.0
 10
344.6900515943585
 20
84.23007134951827
 30
0.0
 10
344.93443476724
 20
84.17281551438569
 30
0.0
 10
345.1570087226272
 20
84.09499269945906
 30
0.0
  0
ARC
  5
239
330
1F
100
AcDbEntity
  8
0
  6
Continuous
 62
     7
370
    25
100
AcDbCircle
 10
338.7915066902
 20
100.8271895369
 30
0.0
 40
16.9218983794267
100
AcDbArc
 50
248.7407901495
 51
279.8413981477
  0
SPLINE
  5
23A
330
1F
100
AcDbEntity
  8
0
  6
Continuous
 62
     7
370
    25
100
AcDbSpline
210
0.0
220
0.0
230
1.0
 70
     8
 71
     3
 72
    16
 73
    12
 74
     0
 42
0.000000001
 43
0.00000001
 40
0.0
 40
0.0
 40
0.0
 40
0.0
 40
0.2499999999999997
 40
0.2499999999999997
 40
0.3750000000000005
 40
0.3750000000000005
 40
0.5000000000000013
 40
0.5000000000000013
 40
0.7500000000000007
 40
0.7500000000000007
 40
1.0
 40
1.0
 40
1.0
 40
1.0
 10
329.9870382128763
 20
85.61153854853576
 30
0.0
 10
330.1366611531651
 20
85.6521435672772
 30
0.0
 10
330.303698029896
 20
85.66784689930124
 30
0.0
 10
330.583870392656
 20
85.65776731102689
 30
0.0
 10
330.6822138867241
 20
85.648765577234
 30
0.0
 10
330.8896321724415
 20
85.61970265020454
 30
0.0
 10
330.9992863430382
 20
85.59948224947462
 30
0.0
 10
331.3387274415312
 20
85.52397497274812
 30
0.0
 10
331.5802385034812
 20
85.45395935644402
 30
0.0
 10
332.0952012682247
 20
85.27978533311533
 30
0.0
 10
332.3704041087444
 20
85.17479368019477
 30
0.0
 10
332.6558319961965
 20
85.0568331422905
 30
0.0
  0
LINE
  5
23B
330
1F
100
AcDbEntity
  8
0
  6
Continuous
 62
     7
370
    25
100
AcDbLine
 10
329.9870382129
 20
85.6115385485
 30
0.0
 11
329.8485466864
 21
90.1525036655
 31
0.0
  0
ARC
  5
23C
330
1F
100
AcDbEntity
  8
0
  6
Continuous
 62
     7
370
    25
100
AcDbCircle
 10
336.5711552518
 20
98.3106226586
 30
0.0
 40
10.57111022681361
100
AcDbArc
 50
230.5101450921
 51
251.268653365
  0
LINE
  5
23D
330
1F
100
AcDbEntity
  8
0
  6
Continuous
 62
     7
370
    25
100
AcDbLine
 10
333.1764423283
 20
88.2994141604
 30
0.0
 11
333.1777570768
 21
88.2206502677
 31
0.0
  0
LINE
  5
23E
330
1F
100
AcDbEntity
  8
0
  6
Continuous
 62
     7
370
    25
100
AcDbLine
 10
333.1764423283
 20
88.2994141604
 30
0.0
 11
333.332970144
 21
88.8260771795
 31
0.0
  0
LINE
  5
23F
330
1F
100
AcDbEntity
  8
0
  6
Continuous
 62
     7
370
    25
100
AcDbLine
 10
306.999036727
 20
109.7244401195
 30
0.0
 11
329.8485466864
 21
90.1525036655
 31
0.0
  0
ARC
  5
240
330
1F
100
AcDbEntity
  8
0
  6
Continuous
 62
     7
370
    25
100
AcDbCircle
 10
310.0861224386
 20
113.7371653359
 30
0.0
 40
5.06281165499173
100
AcDbArc
 50
182.4618127219
 51
232.4280530882
  0
LWPOLYLINE
  5
241
330
1F
100
AcDbEntity
  8
0
  6
Continuous
 62
     7
370
    25
100
AcDbPolyline
 90
       12
 70
   128
 43
0.0
 10
377.9867360079
 20
102.6277815854
 10
378.8412399673
 20
103.0311554186
 10
379.6270095394
 20
103.482470639
 10
380.3364773336
 20
103.9773808345
 10
380.9628107872
 20
104.5111197491
 10
381.4999779667
 20
105.0785471855
 10
381.9428056584
 20
105.6741985072
 10
382.2870291897
 20
106.2923372664
 10
382.5293334998
 20
106.9270104489
 10
382.6673850657
 20
107.572105805
 10
382.6998543753
 20
108.2214107138
 10
382.6997502254
 20
108.2246656376
  0
LINE
  5
242
330
1F
100
AcDbEntity
  8
0
  6
Continuous
 62
     7
370
    25
100
AcDbLine
 10
345.1577134482
 20
88.6220423314
 30
0.0
 11
377.9867360079
 21
102.6277815854
 31
0.0
  0
LINE
  5
243
330
1F
100
AcDbEntity
  8
0
  6
Continuous
 62
     7
370
    25
100
AcDbLine
 10
341.0015363818
 20
87.6882457247
 30
0.0
 11
340.9521492407
 21
87.5220747427
 31
0.0
  0
ELLIPSE
  5
244
330
1F
100
AcDbEntity
  8
0
  6
Continuous
 62
     7
370
    25
100
AcDbEllipse
 10
342.0656975342
 20
79.0853724253
 30
0.0
 11
3.965022977227022
 21
4.503604153694127
 31
0.0
210
0.0
220
0.0
230
1.0
 40
0.6484247075
 41
5.665682307853421
 42
6.540503275423077
  0
LINE
  5
245
330
1F
100
AcDbEntity
  8
0
  6
Continuous
 62
     7
370
    25
100
AcDbLine
 10
377.9849020799
 20
90.8469075907
 30
0.0
 11
377.9867360079
 21
102.6277815854
 31
0.0
  0
LINE
  5
246
330
1F
100
AcDbEntity
  8
0
  6
Continuous
 62
     7
370
    25
100
AcDbLine
 10
347.0548376062
 20
77.6513146565
 30
0.0
 11
377.9849020799
 21
90.8469075907
 31
0.0
  0
LINE
  5
247
330
1F
100
AcDbEntity
  8
0
  6
Continuous
 62
     7
370
    25
100
AcDbLine
 10
347.0548376062
 20
77.6513146565
 30
0.0
 11
346.9893137963
 21
81.2686586813
 31
0.0
  0
LINE
  5
248
330
1F
100
AcDbEntity
  8
0
  6
Continuous
 62
     7
370
    25
100
AcDbLine
 10
346.9893137963
 20
81.2686586813
 30
0.0
 11
346.0306590392
 21
82.0898023303
 31
0.0
  0
ELLIPSE
  5
249
330
1F
100
AcDbEntity
  8
0
  6
Continuous
 62
     7
370
    25
100
AcDbEllipse
 10
341.1091309908
 20
79.9047273977
 30
0.0
 11
3.837964607848392
 21
4.612383192509953
 31
0.0
210
0.0
220
0.0
230
1.0
 40
0.6694206159
 41
5.647306060326967
 42
6.101727937859207
  0
LINE
  5
24A
330
1F
100
AcDbEntity
  8
0
  6
Continuous
 62
     7
370
    25
100
AcDbLine
 10
307.359437287
 20
97.90735345
 30
0.0
 11
328.8872429033
 21
79.4675337662
 31
0.0
  0
LINE
  5
24B
330
1F
100
AcDbEntity
  8
0
  6
Continuous
 62
     7
370
    25
100
AcDbLine
 10
307.359437287
 20
97.90735345
 30
0.0
 11
306.999036727
 21
109.7244401195
 31
0.0
  0
ELLIPSE
  5
24C
330
1F
100
AcDbEntity
  8
0
  6
Continuous
 62
     7
370
    25
100
AcDbEllipse
 10
332.2511549194
 20
80.0665347719
 30
0.0
 11
-2.433197880467105
 21
5.485021502267259
 31
0.0
210
0.0
220
0.0
230
1.0
 40
0.4408789126
 41
6.21551707940417
 42
7.09033804697378
  0
LINE
  5
24D
330
1F
100
AcDbEntity
  8
0
  6
Continuous
 62
     7
370
    25
100
AcDbLine
 10
328.8217190933
 20
83.0848777911
 30
0.0
 11
328.8872429033
 21
79.4675337662
 31
0.0
  0
LINE
  5
24E
330
1F
100
AcDbEntity
  8
0
  6
Continuous
 62
     7
370
    25
100
AcDbLine
 10
330.1990658593
 20
83.6724907677
 30
0.0
 11
328.8217190933
 21
83.0848777911
 31
0.0
  0
ELLIPSE
  5
24F
330
1F
100
AcDbEntity
  8
0
  6
Continuous
 62
     7
370
    25
100
AcDbEllipse
 10
333.6255014455
 20
80.6528677659
 30
0.0
 11
-2.273694397028748
 21
5.553050431854658
 31
0.0
210
0.0
220
0.0
230
1.0
 40
0.4618753914
 41
0.2893753220047797
 42
0.8202016212344729
  0
ELLIPSE
  5
250
330
1F
100
AcDbEntity
  8
0
  6
Continuous
 62
     7
370
    25
100
AcDbEllipse
 10
346.7690512874
 20
77.9028432414
 30
0.0
 11
-0.2027664900389822
 21
0.4570851251889392
 31
0.0
210
0.0
220
0.0
230
1.0
 40
0.4408789126
 41
2.395402359108699
 42
3.948745393383694
  0
LINE
  5
251
330
1F
100
AcDbEntity
  8
0
  6
Continuous
 62
     7
370
    25
100
AcDbLine
 10
346.20495845
 20
78.0000603231
 30
0.0
 11
346.7811381872
 21
77.5065288109
 31
0.0
  0
LINE
  5
252
330
1F
100
AcDbEntity
  8
0
  6
Continuous
 62
     7
370
    25
100
AcDbLine
 10
346.20495845
 20
78.0000603231
 30
0.0
 11
346.0306590392
 21
82.0898023303
 31
0.0
  0
ELLIPSE
  5
253
330
1F
100
AcDbEntity
  8
0
  6
Continuous
 62
     7
370
    25
100
AcDbEllipse
 10
329.2975442584
 20
79.6494742876
 30
0.0
 11
0.3304185814355379
 21
0.375300346141188
 31
0.0
210
0.0
220
0.0
230
1.0
 40
0.6484247075
 41
2.524089654263485
 42
4.07743268853838
  0
LINE
  5
254
330
1F
100
AcDbEntity
  8
0
  6
Continuous
 62
     7
370
    25
100
AcDbLine
 10
329.2974827532
 20
79.2543743362
 30
0.0
 11
330.1253087165
 21
79.6075470379
 31
0.0
  0
LINE
  5
255
330
1F
100
AcDbEntity
  8
0
  6
Continuous
 62
     7
370
    25
100
AcDbLine
 10
330.1990658593
 20
83.6724907677
 30
0.0
 11
330.1253087165
 21
79.6075470379
 31
0.0
  0
LINE
  5
256
330
1F
100
AcDbEntity
  8
0
  6
Continuous
 62
     8
370
    25
100
AcDbLine
 10
340.9498016655
 20
87.7285685384
 30
0.0
 11
340.918592506
 21
87.6230115765
 31
0.0
  0
LINE
  5
257
330
1F
100
AcDbEntity
  8
0
  6
Continuous
 62
     8
370
    25
100
AcDbLine
 10
340.3938677793
 20
89.1126835608
 30
0.0
 11
340.398607639
 21
89.1287149181
 31
0.0
  0
LINE
  5
258
330
1F
100
AcDbEntity
  8
0
  6
Continuous
 62
     8
370
    25
100
AcDbLine
 10
334.2409710668
 20
90.3728940896
 30
0.0
 11
334.2724885135
 21
90.4794937536
 31
0.0
  0
LINE
  5
259
330
1F
100
AcDbEntity
  8
0
  6
Continuous
 62
     8
370
    25
100
AcDbLine
 10
334.2478456563
 20
89.8153164844
 30
0.0
 11
334.4484474742
 21
90.4938005823
 31
0.0
  0
LINE
  5
25A
330
1F
100
AcDbEntity
  8
0
  6
Continuous
 62
     8
370
    25
100
AcDbLine
 10
333.7055640326
 20
89.5822761936
 30
0.0
 11
333.8250231001
 21
89.9863157906
 31
0.0
  0
LINE
  5
25B
330
1F
100
AcDbEntity
  8
0
  6
Continuous
 62
     8
370
    25
100
AcDbLine
 10
340.2587772956
 20
87.5409410917
 30
0.0
 11
340.541610493
 21
88.497551699
 31
0.0
  0
LINE
  5
25C
330
1F
100
AcDbEntity
  8
0
  6
Continuous
 62
     8
370
    25
100
AcDbLine
 10
333.7810689624
 20
89.2678815393
 30
0.0
 11
333.7495515157
 21
89.1612818753
 31
0.0
  0
LINE
  5
25D
330
1F
100
AcDbEntity
  8
0
  6
Continuous
 62
     8
370
    25
100
AcDbLine
 10
334.06034708
 20
89.4469830098
 30
0.0
 11
333.7586116588
 21
88.4264404882
 31
0.0
  0
LINE
  5
25E
330
1F
100
AcDbEntity
  8
0
  6
Continuous
 62
     8
370
    25
100
AcDbLine
 10
338.7515932344
 20
88.3222857897
 30
0.0
 11
338.7518915415
 21
88.2980909834
 31
0.0
  0
LINE
  5
25F
330
1F
100
AcDbEntity
  8
0
  6
Continuous
 62
     8
370
    25
100
AcDbLine
 10
339.6295159395
 20
89.199591384
 30
0.0
 11
339.9390320167
 21
89.1688228947
 31
0.0
  0
LINE
  5
260
330
1F
100
AcDbEntity
  8
0
  6
Continuous
 62
     8
370
    25
100
AcDbLine
 10
336.6188651866
 20
88.8433494601
 30
0.0
 11
336.6158397725
 21
89.0887318407
 31
0.0
  0
LINE
  5
261
330
1F
100
AcDbEntity
  8
0
  6
Continuous
 62
     8
370
    25
100
AcDbLine
 10
334.8141877583
 20
88.6895317137
 30
0.0
 11
334.8138894512
 21
88.71372652
 31
0.0
  0
LINE
  5
262
330
1F
100
AcDbEntity
  8
0
  6
Continuous
 62
     8
370
    25
100
AcDbLine
 10
344.0469586681
 20
84.3042831937
 30
0.0
 11
344.2198593009
 21
77.2615642801
 31
0.0
  0
LINE
  5
263
330
1F
100
AcDbEntity
  8
0
  6
Continuous
 62
     8
370
    25
100
AcDbLine
 10
331.6038264251
 20
85.441800673
 30
0.0
 11
331.5653535767
 21
78.5266384684
 31
0.0
  0
LINE
  5
264
330
1F
100
AcDbEntity
  8
0
  6
Continuous
 62
     8
370
    25
100
AcDbLine
 10
344.2198593009
 20
77.2615642801
 30
0.0
 11
346.2004210695
 21
78.1065249139
 31
0.0
  0
LINE
  5
265
330
1F
100
AcDbEntity
  8
0
  6
Continuous
 62
     8
370
    25
100
AcDbLine
 10
330.1280347518
 20
79.7577857777
 30
0.0
 11
331.5653535767
 21
78.5266384684
 31
0.0
  0
ARC
  5
266
330
1F
100
AcDbEntity
  8
0
  6
Continuous
 62
     8
370
    25
100
AcDbCircle
 10
331.8290573266
 20
78.5097448521
 30
0.0
 40
0.2642443224491792
100
AcDbArc
 50
176.33447755
 51
227.5145857589
  0
ARC
  5
267
330
1F
100
AcDbEntity
  8
0
  6
Continuous
 62
     8
370
    25
100
AcDbCircle
 10
344.0061730728
 20
77.2183258824
 30
0.0
 40
0.2180168872288299
100
AcDbArc
 50
304.8233558312
 51
11.439079896
  0
LINE
  5
268
330
1F
100
AcDbEntity
  8
0
  6
Continuous
 62
     8
370
    25
100
AcDbLine
 10
346.9571296109
 20
104.7380832584
 30
0.0
 11
346.9564226653
 21
104.6110158927
 31
0.0
  0
LINE
  5
269
330
1F
100
AcDbEntity
  8
0
  6
Continuous
 62
     8
370
    25
100
AcDbLine
 10
345.8146541129
 20
105.7166800811
 30
0.0
 11
345.813867395
 21
105.5752743269
 31
0.0
  0
LINE
  5
26A
330
1F
100
AcDbEntity
  8
0
  6
Continuous
 62
     8
370
    25
100
AcDbLine
 10
330.2049762351
 20
106.412800335
 30
0.0
 11
330.2073152407
 21
106.317526198
 31
0.0
  0
LINE
  5
26B
330
1F
100
AcDbEntity
  8
0
  6
Continuous
 62
     8
370
    25
100
AcDbLine
 10
331.8464273631
 20
107.1130872977
 30
0.0
 11
331.8488299655
 21
107.0152226856
 31
0.0
  0
LINE
  5
26C
330
1F
100
AcDbEntity
  8
0
  6
Continuous
 62
     8
370
    25
100
AcDbLine
 10
343.2135784055
 20
117.8712458061
 30
0.0
 11
343.2211176633
 21
117.6479674811
 31
0.0
  0
LINE
  5
26D
330
1F
100
AcDbEntity
  8
0
  6
Continuous
 62
     8
370
    25
100
AcDbLine
 10
343.5664074572
 20
119.0583959156
 30
0.0
 11
343.5803570834
 21
118.6452718033
 31
0.0
  0
LINE
  5
26E
330
1F
100
AcDbEntity
  8
0
  6
Continuous
 62
     8
370
    25
100
AcDbLine
 10
348.6575502054
 20
105.2792310787
 30
0.0
 11
348.6520016593
 21
105.4611610148
 31
0.0
  0
LINE
  5
26F
330
1F
100
AcDbEntity
  8
0
  6
Continuous
 62
     8
370
    25
100
AcDbLine
 10
333.6344435592
 20
90.0807224613
 30
0.0
 11
333.7062904062
 21
90.3224627373
 31
0.0
  0
LINE
  5
270
330
1F
100
AcDbEntity
  8
0
  6
Continuous
 62
     8
370
    25
100
AcDbLine
 10
347.5139755768
 20
106.2938670299
 30
0.0
 11
347.5095261613
 21
106.4397578375
 31
0.0
  0
LINE
  5
271
330
1F
100
AcDbEntity
  8
0
  6
Continuous
 62
     8
370
    25
100
AcDbLine
 10
333.6390546451
 20
89.5155289341
 30
0.0
 11
333.8231889482
 21
90.1350784214
 31
0.0
  0
LINE
  5
272
330
1F
100
AcDbEntity
  8
0
  6
Continuous
 62
     8
370
    25
100
AcDbLine
 10
329.0253029894
 20
107.3207412956
 30
0.0
 11
329.0253189463
 21
107.4232455278
 31
0.0
  0
LINE
  5
273
330
1F
100
AcDbEntity
  8
0
  6
Continuous
 62
     8
370
    25
100
AcDbLine
 10
333.1704128009
 20
88.9612649662
 30
0.0
 11
333.2415363113
 21
89.2005714597
 31
0.0
  0
LINE
  5
274
330
1F
100
AcDbEntity
  8
0
  6
Continuous
 62
     8
370
    25
100
AcDbLine
 10
330.6667546791
 20
108.0246362959
 30
0.0
 11
330.6667700742
 21
108.1235324905
 31
0.0
  0
ARC
  5
275
330
1F
100
AcDbEntity
  8
0
  6
Continuous
 62
     8
370
    25
100
AcDbCircle
 10
380.1148645101
 20
123.3877613319
 30
0.0
 40
0.308939316003939
100
AcDbArc
 50
54.2572667648
 51
118.9666846233
  0
LWPOLYLINE
  5
276
330
1F
100
AcDbEntity
  8
0
  6
Continuous
 62
     8
370
    25
100
AcDbPolyline
 90
       12
 70
   128
 43
0.0
 10
382.3039386232
 20
119.9029016679
 10
382.3045402374
 20
119.8851414543
 10
382.2728134276
 20
119.250684683
 10
382.1379187893
 20
118.6203412013
 10
381.9011554318
 20
118.0001815617
 10
381.5648035156
 20
117.3961782405
 10
381.1321022934
 20
116.8141481198
 10
380.6072189147
 20
116.2596964679
 10
379.9952082932
 20
115.7381629573
 10
379.3019644258
 20
115.2545702408
 10
378.53416363
 20
114.8135755805
 10
377.699200247
 20
114.4194259963
  0
LINE
  5
277
330
1F
100
AcDbEntity
  8
0
  6
Continuous
 62
     8
370
    25
100
AcDbLine
 10
341.1788972422
 20
117.8481387156
 30
0.0
 11
341.1809792185
 21
118.0744452691
 31
0.0
  0
LINE
  5
278
330
1F
100
AcDbEntity
  8
0
  6
Continuous
 62
     8
370
    25
100
AcDbLine
 10
341.5294406113
 20
118.7868398135
 30
0.0
 11
341.5338082701
 21
119.2615953785
 31
0.0
  0
ARC
  5
279
330
1F
100
AcDbEntity
  8
0
  6
Continuous
 62
     8
370
    25
100
AcDbCircle
 10
309.9375392006
 20
125.3350689972
 30
0.0
 40
4.80877147932494
100
AcDbArc
 50
183.3248866226
 51
233.2686468636
  0
ARC
  5
27A
330
1F
100
AcDbEntity
  8
0
  6
Continuous
 62
     8
370
    25
100
AcDbCircle
 10
309.8785819448
 20
130.5245959421
 30
0.0
 40
0.1917452910667895
100
AcDbArc
 50
40.9027082237
 51
104.0207668329
  0
ARC
  5
27B
330
1F
100
AcDbEntity
  8
0
  6
Continuous
 62
     8
370
    25
100
AcDbCircle
 10
357.2653462314
 20
142.9597422112
 30
0.0
 40
0.3088964194800696
100
AcDbArc
 50
54.2253671699
 51
118.9693253373
  0
ARC
  5
27C
330
1F
100
AcDbEntity
  8
0
  6
Continuous
 62
     8
370
    25
100
AcDbCircle
 10
342.7075676578
 20
144.5302736379
 30
0.0
 40
0.1918134487768612
100
AcDbArc
 50
40.9093994355
 51
103.9734318852
  0
LINE
  5
27D
330
1F
100
AcDbEntity
  8
0
  6
Continuous
 62
     8
370
    25
100
AcDbLine
 10
340.1283216429
 20
86.7295829098
 30
0.0
 11
340.2477276475
 21
87.1313436231
 31
0.0
  0
LINE
  5
27E
330
1F
100
AcDbEntity
  8
0
  6
Continuous
 62
     8
370
    25
100
AcDbLine
 10
333.9274414469
 20
87.3494864961
 30
0.0
 11
334.0458198171
 21
87.7477895678
 31
0.0
  0
LINE
  5
27F
330
1F
100
AcDbEntity
  8
0
  6
Continuous
 62
     8
370
    25
100
AcDbLine
 10
333.1777570768
 20
88.2206502677
 30
0.0
 11
333.3339549421
 21
88.7462031157
 31
0.0
  0
ARC
  5
280
330
1F
100
AcDbEntity
  8
0
  6
Continuous
 62
     8
370
    25
100
AcDbCircle
 10
377.7799119725
 20
90.8115727336
 30
0.0
 40
0.2080132117489232
100
AcDbArc
 50
303.7389570103
 51
9.7801636409
  0
ARC
  5
281
330
1F
100
AcDbEntity
  8
0
  6
Continuous
 62
     8
370
    25
100
AcDbCircle
 10
307.6182704201
 20
97.9014455071
 30
0.0
 40
0.2589005495538755
100
AcDbArc
 50
178.6924339255
 51
227.8066757511
  0
LWPOLYLINE
  5
282
330
1F
100
AcDbEntity
  8
0
  6
Continuous
 62
     8
370
    25
100
AcDbPolyline
 90
       11
 70
   128
 43
0.0
 10
377.9849020799
 20
90.8469075907
 10
378.8191873815
 20
91.2407370825
 10
379.5863646394
 20
91.681373607
 10
380.2790455171
 20
92.1645735935
 10
380.8905591193
 20
92.685683562
 10
381.4150162355
 20
93.2396849387
 10
381.847366057
 20
93.8212423875
 10
382.1834448188
 20
94.4247551921
 10
382.4200158987
 20
95.0444111945
 10
382.5548009877
 20
95.6742427684
 10
382.5882635151
 20
96.1484616953
  0
ARC
  5
283
330
1F
100
AcDbEntity
  8
0
  6
Continuous
 62
     8
370
    25
100
AcDbCircle
 10
310.4067488131
 20
101.8536921066
 30
0.0
 40
4.985949892413804
100
AcDbArc
 50
184.6450645842
 51
232.3251456598
  0
LINE
  5
284
330
1F
100
AcDbEntity
  8
0
  6
Continuous
 62
     7
370
    25
100
AcDbLine
 10
74.5593050741
 20
188.599941488
 30
0.0
 11
74.4460031636
 21
189.8949948881
 31
0.0
  0
ARC
  5
285
330
1F
100
AcDbEntity
  8
0
  6
Continuous
 62
     7
370
    25
100
AcDbCircle
 10
74.0581596456
 20
194.3280612919
 30
0.0
 40
5.750000000000021
100
AcDbArc
 50
355.0
 51
275.0
  0
LINE
  5
286
330
1F
100
AcDbEntity
  8
0
  6
Continuous
 62
     7
370
    25
100
AcDbLine
 10
78.4912260495
 20
193.940217774
 30
0.0
 11
79.7862794496
 21
193.8269158635
 31
0.0
  0
ARC
  5
287
330
1F
100
AcDbEntity
  8
0
  6
Continuous
 62
     7
370
    25
100
AcDbCircle
 10
74.0581596456
 20
194.3280612919
 30
0.0
 40
4.450000000000022
100
AcDbArc
 50
355.0
 51
275.0
  0
LINE
  5
288
330
1F
100
AcDbEntity
  8
0
  6
Continuous
 62
     7
370
    25
100
AcDbLine
 10
66.8875595801
 20
193.6780616451
 30
0.0
 11
68.0431781583
 21
193.6780616451
 31
0.0
  0
LINE
  5
289
330
1F
100
AcDbEntity
  8
0
  6
Continuous
 62
     7
370
    25
100
AcDbLine
 10
68.0431781583
 20
194.9780612994
 30
0.0
 11
66.8875595801
 21
194.9780612994
 31
0.0
  0
ARC
  5
28A
330
1F
100
AcDbEntity
  8
0
  6
Continuous
 62
     7
370
    25
100
AcDbCircle
 10
74.0581596456
 20
194.3280612919
 30
0.0
 40
7.199999999999994
100
AcDbArc
 50
174.8204123613
 51
185.1795876387
  0
ARC
  5
28B
330
1F
100
AcDbEntity
  8
0
  6
Continuous
 62
     7
370
    25
100
AcDbCircle
 10
74.0581596456
 20
194.3280612919
 30
0.0
 40
6.049999999999993
100
AcDbArc
 50
173.8323506009
 51
186.1676493991
  0
LINE
  5
28C
330
1F
100
AcDbEntity
  8
0
  6
Continuous
 62
     7
370
    25
100
AcDbLine
 10
73.7889206283
 20
193.6780616451
 30
0.0
 11
78.6689196028
 21
188.7980626706
 31
0.0
  0
LINE
  5
28D
330
1F
100
AcDbEntity
  8
0
  6
Continuous
 62
     7
370
    25
100
AcDbLine
 10
69.9593799435
 20
193.6780616451
 30
0.0
 11
73.7889206283
 21
193.6780616451
 31
0.0
  0
ARC
  5
28E
330
1F
100
AcDbEntity
  8
0
  6
Continuous
 62
     7
370
    25
100
AcDbCircle
 10
74.0581596456
 20
194.3280612919
 30
0.0
 40
4.149999999999991
100
AcDbArc
 50
170.988859535
 51
189.011140465
  0
LINE
  5
28F
330
1F
100
AcDbEntity
  8
0
  6
Continuous
 62
     7
370
    25
100
AcDbLine
 10
74.3273983024
 20
194.9780612994
 30
0.0
 11
69.9593799435
 21
194.9780612994
 31
0.0
  0
ARC
  5
290
330
1F
100
AcDbEntity
  8
0
  6
Continuous
 62
     7
370
    25
100
AcDbCircle
 10
74.0581596456
 20
194.3280612919
 30
0.0
 40
7.200000000000009
100
AcDbArc
 50
309.8204123613
 51
320.1795876387
  0
LINE
  5
291
330
1F
100
AcDbEntity
  8
0
  6
Continuous
 62
     7
370
    25
100
AcDbLine
 10
79.588158267
 20
189.7173013348
 30
0.0
 11
74.3273983024
 21
194.9780612994
 31
0.0
  0
LINE
  5
292
330
1F
100
AcDbEntity
  8
0
  6
Continuous
 62
     7
370
    25
100
AcDbLine
 10
79.7523308791
 20
193.5287399027
 30
0.0
 11
78.4549938761
 21
193.6422420475
 31
0.0
  0
ARC
  5
293
330
1F
100
AcDbEntity
  8
0
  6
Continuous
 62
     7
370
    25
100
AcDbCircle
 10
74.0581596456
 20
194.3280612919
 30
0.0
 40
5.750000000000013
100
AcDbArc
 50
324.5098634001
 51
352.0092970933
  0
LINE
  5
294
330
1F
100
AcDbEntity
  8
0
  6
Continuous
 62
     7
370
    25
100
AcDbLine
 10
77.8039966024
 20
191.9257279295
 30
0.0
 11
78.7398984902
 21
190.9898251105
 31
0.0
  0
ARC
  5
295
330
1F
100
AcDbEntity
  8
0
  6
Continuous
 62
     7
370
    25
100
AcDbCircle
 10
74.0581596456
 20
194.3280612919
 30
0.0
 40
4.450000000000016
100
AcDbArc
 50
327.3265520233
 51
351.1344313081
  0
LINE
  5
296
330
1F
100
AcDbEntity
  8
0
  6
Continuous
 62
     7
370
    25
100
AcDbLine
 10
77.3963958271
 20
189.6463224474
 30
0.0
 11
76.4604930081
 21
190.5822243351
 31
0.0
  0
ARC
  5
297
330
1F
100
AcDbEntity
  8
0
  6
Continuous
 62
     7
370
    25
100
AcDbCircle
 10
74.0581596456
 20
194.3280612919
 30
0.0
 40
5.750000000000009
100
AcDbArc
 50
277.9907029067
 51
305.4901365999
  0
LINE
  5
298
330
1F
100
AcDbEntity
  8
0
  6
Continuous
 62
     7
370
    25
100
AcDbLine
 10
74.74397889
 20
189.9312270615
 30
0.0
 11
74.8574810348
 21
188.6338900584
 31
0.0
  0
ARC
  5
299
330
1F
100
AcDbEntity
  8
0
  6
Continuous
 62
     7
370
    25
100
AcDbCircle
 10
74.0581596456
 20
194.3280612919
 30
0.0
 40
4.450000000000005
100
AcDbArc
 50
278.8655686919
 51
302.6734479767
  0
CIRCLE
  5
29A
330
1F
100
AcDbEntity
  8
0
  6
Continuous
 62
     7
370
    25
100
AcDbCircle
 10
74.0581596456
 20
194.3280612919
 30
0.0
 40
7.377814545502474
  0
ARC
  5
29B
330
1F
100
AcDbEntity
  8
0
  6
Continuous
 62
     7
370
    25
100
AcDbCircle
 10
74.0581596456
 20
194.3280612919
 30
0.0
 40
7.451125818200985
100
AcDbArc
 50
179.7017564315
 51
180.2982435685
  0
LINE
  5
29C
330
1F
100
AcDbEntity
  8
0
  6
Continuous
 62
     7
370
    25
100
AcDbLine
 10
66.6275231414
 20
195.1667249012
 30
0.0
 11
66.6405746959
 21
195.1667249012
 31
0.0
  0
LINE
  5
29D
330
1F
100
AcDbEntity
  8
0
  6
Continuous
 62
     7
370
    25
100
AcDbLine
 10
66.6405746959
 20
193.4893980432
 30
0.0
 11
66.6275231414
 21
193.4893980432
 31
0.0
  0
LINE
  5
29E
330
1F
100
AcDbEntity
  8
0
  6
Continuous
 62
     7
370
    25
100
AcDbLine
 10
75.0232499339
 20
207.3280608091
 30
0.0
 11
75.0581596293
 21
207.3280608091
 31
0.0
  0
ARC
  5
29F
330
1F
100
AcDbEntity
  8
0
  6
Continuous
 62
     7
370
    25
100
AcDbCircle
 10
74.0581596456
 20
207.3280612919
 30
0.0
 40
0.9650898701435722
100
AcDbArc
 50
0.0
 51
180.0
  0
LINE
  5
2A0
330
1F
100
AcDbEntity
  8
0
  6
Continuous
 62
     7
370
    25
100
AcDbLine
 10
73.0930699281
 20
207.3280608091
 30
0.0
 11
73.0581593014
 21
207.3280608091
 31
0.0
  0
ARC
  5
2A1
330
1F
100
AcDbEntity
  8
0
  6
Continuous
 62
     7
370
    25
100
AcDbCircle
 10
74.0581596456
 20
207.3280612919
 30
0.0
 40
1.0
100
AcDbArc
 50
0.0
 51
180.0
  0
LINE
  5
2A2
330
1F
100
AcDbEntity
  8
0
  6
Continuous
 62
     7
370
    25
100
AcDbLine
 10
73.0930699281
 20
207.3280608091
 30
0.0
 11
73.0930699281
 21
205.3280604813
 31
0.0
  0
LINE
  5
2A3
330
1F
100
AcDbEntity
  8
0
  6
Continuous
 62
     7
370
    25
100
AcDbLine
 10
75.0232499339
 20
205.3280604813
 30
0.0
 11
75.0232499339
 21
207.3280608091
 31
0.0
  0
ARC
  5
2A4
330
1F
100
AcDbEntity
  8
0
  6
Continuous
 62
     7
370
    25
100
AcDbCircle
 10
74.0581596456
 20
205.3280612919
 30
0.0
 40
0.9650898701435722
100
AcDbArc
 50
180.0
 51
0.0
  0
LINE
  5
2A5
330
1F
100
AcDbEntity
  8
0
  6
Continuous
 62
     7
370
    25
100
AcDbLine
 10
73.0930699281
 20
205.3280604813
 30
0.0
 11
73.0581593014
 21
205.3280604813
 31
0.0
  0
LINE
  5
2A6
330
1F
100
AcDbEntity
  8
0
  6
Continuous
 62
     7
370
    25
100
AcDbLine
 10
73.0581593014
 20
207.3280608091
 30
0.0
 11
73.0581593014
 21
205.3280604813
 31
0.0
  0
LINE
  5
2A7
330
1F
100
AcDbEntity
  8
0
  6
Continuous
 62
     7
370
    25
100
AcDbLine
 10
75.0232499339
 20
205.3280604813
 30
0.0
 11
75.0581596293
 21
205.3280604813
 31
0.0
  0
LINE
  5
2A8
330
1F
100
AcDbEntity
  8
0
  6
Continuous
 62
     7
370
    25
100
AcDbLine
 10
75.0581596293
 20
205.3280604813
 30
0.0
 11
75.0581596293
 21
207.3280608091
 31
0.0
  0
ARC
  5
2A9
330
1F
100
AcDbEntity
  8
0
  6
Continuous
 62
     7
370
    25
100
AcDbCircle
 10
74.0581596456
 20
205.3280612919
 30
0.0
 40
1.0
100
AcDbArc
 50
180.0
 51
0.0
  0
LINE
  5
2AA
330
1F
100
AcDbEntity
  8
0
  6
Continuous
 62
     7
370
    25
100
AcDbLine
 10
63.0581604563
 20
193.3629710037
 30
0.0
 11
63.0581604563
 21
193.3280613083
 31
0.0
  0
ARC
  5
2AB
330
1F
100
AcDbEntity
  8
0
  6
Continuous
 62
     7
370
    25
100
AcDbCircle
 10
63.0581596456
 20
194.3280612919
 30
0.0
 40
0.9650898701435722
100
AcDbArc
 50
270.0
 51
90.0
  0
LINE
  5
2AC
330
1F
100
AcDbEntity
  8
0
  6
Continuous
 62
     7
370
    25
100
AcDbLine
 10
63.0581604563
 20
195.2931510094
 30
0.0
 11
63.0581604563
 21
195.3280616361
 31
0.0
  0
ARC
  5
2AD
330
1F
100
AcDbEntity
  8
0
  6
Continuous
 62
     7
370
    25
100
AcDbCircle
 10
63.0581596456
 20
194.3280612919
 30
0.0
 40
1.0
100
AcDbArc
 50
270.0
 51
90.0
  0
LINE
  5
2AE
330
1F
100
AcDbEntity
  8
0
  6
Continuous
 62
     7
370
    25
100
AcDbLine
 10
63.0581604563
 20
195.2931510094
 30
0.0
 11
61.0581601284
 21
195.2931510094
 31
0.0
  0
LINE
  5
2AF
330
1F
100
AcDbEntity
  8
0
  6
Continuous
 62
     7
370
    25
100
AcDbLine
 10
61.0581601284
 20
193.3629710037
 30
0.0
 11
63.0581604563
 21
193.3629710037
 31
0.0
  0
ARC
  5
2B0
330
1F
100
AcDbEntity
  8
0
  6
Continuous
 62
     7
370
    25
100
AcDbCircle
 10
61.0581596456
 20
194.3280612919
 30
0.0
 40
0.9650898701435722
100
AcDbArc
 50
90.0
 51
270.0
  0
LINE
  5
2B1
330
1F
100
AcDbEntity
  8
0
  6
Continuous
 62
     7
370
    25
100
AcDbLine
 10
61.0581601284
 20
195.2931510094
 30
0.0
 11
61.0581601284
 21
195.3280616361
 31
0.0
  0
LINE
  5
2B2
330
1F
100
AcDbEntity
  8
0
  6
Continuous
 62
     7
370
    25
100
AcDbLine
 10
61.0581601284
 20
193.3629710037
 30
0.0
 11
61.0581601284
 21
193.3280613083
 31
0.0
  0
ARC
  5
2B3
330
1F
100
AcDbEntity
  8
0
  6
Continuous
 62
     7
370
    25
100
AcDbCircle
 10
61.0581596456
 20
194.3280612919
 30
0.0
 40
1.0
100
AcDbArc
 50
90.0
 51
270.0
  0
LINE
  5
2B4
330
1F
100
AcDbEntity
  8
0
  6
Continuous
 62
     7
370
    25
100
AcDbLine
 10
63.0581604563
 20
195.3280616361
 30
0.0
 11
61.0581601284
 21
195.3280616361
 31
0.0
  0
LINE
  5
2B5
330
1F
100
AcDbEntity
  8
0
  6
Continuous
 62
     7
370
    25
100
AcDbLine
 10
61.0581601284
 20
193.3280613083
 30
0.0
 11
63.0581604563
 21
193.3280613083
 31
0.0
  0
LINE
  5
2B6
330
1F
100
AcDbEntity
  8
0
  6
Continuous
 62
     7
370
    25
100
AcDbLine
 10
82.5187556691
 20
187.232308257
 30
0.0
 11
82.5434408397
 21
187.2569934275
 31
0.0
  0
ARC
  5
2B7
330
1F
100
AcDbEntity
  8
0
  6
Continuous
 62
     7
370
    25
100
AcDbCircle
 10
81.8363342387
 20
186.5498866989
 30
0.0
 40
0.9650898701435748
100
AcDbArc
 50
45.0
 51
225.0
  0
LINE
  5
2B8
330
1F
100
AcDbEntity
  8
0
  6
Continuous
 62
     7
370
    25
100
AcDbLine
 10
81.1539126806
 20
185.8674652684
 30
0.0
 11
81.1292275101
 21
185.8427800979
 31
0.0
  0
ARC
  5
2B9
330
1F
100
AcDbEntity
  8
0
  6
Continuous
 62
     7
370
    25
100
AcDbCircle
 10
81.8363342387
 20
186.5498866989
 30
0.0
 40
0.999999999999998
100
AcDbArc
 50
45.0
 51
225.0
  0
LINE
  5
2BA
330
1F
100
AcDbEntity
  8
0
  6
Continuous
 62
     7
370
    25
100
AcDbLine
 10
81.1539126806
 20
185.8674652684
 30
0.0
 11
82.5681260102
 21
184.4532514732
 31
0.0
  0
LINE
  5
2BB
330
1F
100
AcDbEntity
  8
0
  6
Continuous
 62
     7
370
    25
100
AcDbLine
 10
83.9329694644
 20
185.8180949274
 30
0.0
 11
82.5187556691
 21
187.232308257
 31
0.0
  0
ARC
  5
2BC
330
1F
100
AcDbEntity
  8
0
  6
Continuous
 62
     7
370
    25
100
AcDbCircle
 10
83.2505478011
 20
185.1356731365
 30
0.0
 40
0.9650898701435748
100
AcDbArc
 50
225.0
 51
45.0
  0
LINE
  5
2BD
330
1F
100
AcDbEntity
  8
0
  6
Continuous
 62
     7
370
    25
100
AcDbLine
 10
83.9329694644
 20
185.8180949274
 30
0.0
 11
83.9576546349
 21
185.8427800979
 31
0.0
  0
LINE
  5
2BE
330
1F
100
AcDbEntity
  8
0
  6
Continuous
 62
     7
370
    25
100
AcDbLine
 10
83.9576546349
 20
185.8427800979
 30
0.0
 11
82.5434408397
 21
187.2569934275
 31
0.0
  0
LINE
  5
2BF
330
1F
100
AcDbEntity
  8
0
  6
Continuous
 62
     7
370
    25
100
AcDbLine
 10
82.5681260102
 20
184.4532514732
 30
0.0
 11
82.5434408397
 21
184.4285663027
 31
0.0
  0
ARC
  5
2C0
330
1F
100
AcDbEntity
  8
0
  6
Continuous
 62
     7
370
    25
100
AcDbCircle
 10
83.2505478011
 20
185.1356731365
 30
0.0
 40
1.000000000000018
100
AcDbArc
 50
225.0
 51
45.0
  0
LINE
  5
2C1
330
1F
100
AcDbEntity
  8
0
  6
Continuous
 62
     7
370
    25
100
AcDbLine
 10
81.1292275101
 20
185.8427800979
 30
0.0
 11
82.5434408397
 21
184.4285663027
 31
0.0
  0
LINE
  5
2C2
330
1F
100
AcDbEntity
  8
0
  6
Continuous
 62
     7
370
    25
100
AcDbLine
 10
107.6581591986
 20
210.9748871807
 30
0.0
 11
67.6581600927
 21
210.9748871807
 31
0.0
  0
LINE
  5
2C3
330
1F
100
AcDbEntity
  8
0
  6
Continuous
 62
     7
370
    25
100
AcDbLine
 10
67.6581600927
 20
211.4748099629
 30
0.0
 11
67.6581600927
 21
210.9748871807
 31
0.0
  0
LINE
  5
2C4
330
1F
100
AcDbEntity
  8
0
  6
Continuous
 62
     7
370
    25
100
AcDbLine
 10
67.6581600927
 20
211.4748099629
 30
0.0
 11
107.6581591986
 21
211.4748099629
 31
0.0
  0
LINE
  5
2C5
330
1F
100
AcDbEntity
  8
0
  6
Continuous
 62
     7
370
    25
100
AcDbLine
 10
107.6581591986
 20
211.4748099629
 30
0.0
 11
107.6581591986
 21
210.9748871807
 31
0.0
  0
ARC
  5
2C6
330
1F
100
AcDbEntity
  8
0
  6
Continuous
 62
     7
370
    25
100
AcDbCircle
 10
107.6581596456
 20
200.7280612919
 30
0.0
 40
10.24682539451889
100
AcDbArc
 50
0.0
 51
90.0
  0
ARC
  5
2C7
330
1F
100
AcDbEntity
  8
0
  6
Continuous
 62
     7
370
    25
100
AcDbCircle
 10
107.6581596456
 20
200.7280612919
 30
0.0
 40
10.74674924209708
100
AcDbArc
 50
0.0
 51
90.0
  0
LINE
  5
2C8
330
1F
100
AcDbEntity
  8
0
  6
Continuous
 62
     7
370
    25
100
AcDbLine
 10
117.9049855344
 20
200.7280608449
 30
0.0
 11
118.4049083166
 21
200.7280608449
 31
0.0
  0
ARC
  5
2C9
330
1F
100
AcDbEntity
  8
0
  6
Continuous
 62
     7
370
    25
100
AcDbCircle
 10
67.6581596456
 20
200.7280612919
 30
0.0
 40
10.24682539451888
100
AcDbArc
 50
90.0
 51
180.0
  0
LINE
  5
2CA
330
1F
100
AcDbEntity
  8
0
  6
Continuous
 62
     7
370
    25
100
AcDbLine
 10
56.9114109747
 20
200.7280608449
 30
0.0
 11
57.4113337569
 21
200.7280608449
 31
0.0
  0
ARC
  5
2CB
330
1F
100
AcDbEntity
  8
0
  6
Continuous
 62
     7
370
    25
100
AcDbCircle
 10
67.6581596456
 20
200.7280612919
 30
0.0
 40
10.74674924209709
100
AcDbArc
 50
90.0
 51
180.0
  0
LINE
  5
2CC
330
1F
100
AcDbEntity
  8
0
  6
Continuous
 62
     7
370
    25
100
AcDbLine
 10
84.0283653013
 20
185.9134907644
 30
0.0
 11
82.6141515061
 21
187.3277040939
 31
0.0
  0
ARC
  5
2CD
330
1F
100
AcDbEntity
  8
0
  6
Continuous
 62
     7
370
    25
100
AcDbCircle
 10
81.8363342387
 20
186.5498866989
 30
0.0
 40
1.100000000000003
100
AcDbArc
 50
45.0
 51
225.0
  0
LINE
  5
2CE
330
1F
100
AcDbEntity
  8
0
  6
Continuous
 62
     7
370
    25
100
AcDbLine
 10
81.0585168436
 20
185.7720694314
 30
0.0
 11
82.4727301732
 21
184.3578556362
 31
0.0
  0
ARC
  5
2CF
330
1F
100
AcDbEntity
  8
0
  6
Continuous
 62
     7
370
    25
100
AcDbCircle
 10
83.2505478011
 20
185.1356731365
 30
0.0
 40
1.100000000000023
100
AcDbArc
 50
225.0
 51
45.0
  0
ARC
  5
2D0
330
1F
100
AcDbEntity
  8
0
  6
Continuous
 62
     7
370
    25
100
AcDbCircle
 10
63.0581596456
 20
194.3280612919
 30
0.0
 40
1.100000000000023
100
AcDbArc
 50
270.0
 51
90.0
  0
LINE
  5
2D1
330
1F
100
AcDbEntity
  8
0
  6
Continuous
 62
     7
370
    25
100
AcDbLine
 10
63.0581604563
 20
195.4280614663
 30
0.0
 11
61.0581601284
 21
195.4280614663
 31
0.0
  0
ARC
  5
2D2
330
1F
100
AcDbEntity
  8
0
  6
Continuous
 62
     7
370
    25
100
AcDbCircle
 10
61.0581596456
 20
194.3280612919
 30
0.0
 40
1.099999999999994
100
AcDbArc
 50
90.0
 51
270.0
  0
LINE
  5
2D3
330
1F
100
AcDbEntity
  8
0
  6
Continuous
 62
     7
370
    25
100
AcDbLine
 10
61.0581601284
 20
193.2280614782
 30
0.0
 11
63.0581604563
 21
193.2280614782
 31
0.0
  0
ARC
  5
2D4
330
1F
100
AcDbEntity
  8
0
  6
Continuous
 62
     7
370
    25
100
AcDbCircle
 10
74.0581596456
 20
207.3280612919
 30
0.0
 40
1.100000000000009
100
AcDbArc
 50
0.0
 51
180.0
  0
LINE
  5
2D5
330
1F
100
AcDbEntity
  8
0
  6
Continuous
 62
     7
370
    25
100
AcDbLine
 10
72.9581594713
 20
207.3280608091
 30
0.0
 11
72.9581594713
 21
205.3280604813
 31
0.0
  0
ARC
  5
2D6
330
1F
100
AcDbEntity
  8
0
  6
Continuous
 62
     7
370
    25
100
AcDbCircle
 10
74.0581596456
 20
205.3280612919
 30
0.0
 40
1.100000000000009
100
AcDbArc
 50
180.0
 51
0.0
  0
LINE
  5
2D7
330
1F
100
AcDbEntity
  8
0
  6
Continuous
 62
     7
370
    25
100
AcDbLine
 10
75.1581594594
 20
205.3280604813
 30
0.0
 11
75.1581594594
 21
207.3280608091
 31
0.0
  0
CIRCLE
  5
2D8
330
1F
100
AcDbEntity
  8
0
  6
Continuous
 62
     7
370
    25
100
AcDbCircle
 10
74.0581596456
 20
194.3280612919
 30
0.0
 40
7.477814545502468
  0
LINE
  5
2D9
330
1F
100
AcDbEntity
  8
0
  6
Continuous
 62
     7
370
    25
100
AcDbLine
 10
67.6581600927
 20
150.4812354032
 30
0.0
 11
107.6581591986
 21
150.4812354032
 31
0.0
  0
ARC
  5
2DA
330
1F
100
AcDbEntity
  8
0
  6
Continuous
 62
     7
370
    25
100
AcDbCircle
 10
67.6581596456
 20
160.7280612919
 30
0.0
 40
10.24682539451889
100
AcDbArc
 50
180.0
 51
270.0
  0
LINE
  5
2DB
330
1F
100
AcDbEntity
  8
0
  6
Continuous
 62
     7
370
    25
100
AcDbLine
 10
57.4113337569
 20
200.7280608449
 30
0.0
 11
57.4113337569
 21
160.728061739
 31
0.0
  0
LINE
  5
2DC
330
1F
100
AcDbEntity
  8
0
  6
Continuous
 62
     7
370
    25
100
AcDbLine
 10
117.9049855344
 20
160.728061739
 30
0.0
 11
117.9049855344
 21
200.7280608449
 31
0.0
  0
ARC
  5
2DD
330
1F
100
AcDbEntity
  8
0
  6
Continuous
 62
     7
370
    25
100
AcDbCircle
 10
107.6581596456
 20
160.7280612919
 30
0.0
 40
10.24682539451889
100
AcDbArc
 50
270.0
 51
0.0
  0
LINE
  5
2DE
330
1F
100
AcDbEntity
  8
0
  6
Continuous
 62
     7
370
    25
100
AcDbLine
 10
56.9114109747
 20
160.728061739
 30
0.0
 11
57.4113337569
 21
160.728061739
 31
0.0
  0
LINE
  5
2DF
330
1F
100
AcDbEntity
  8
0
  6
Continuous
 62
     7
370
    25
100
AcDbLine
 10
56.9114109747
 20
160.728061739
 30
0.0
 11
56.9114109747
 21
200.7280608449
 31
0.0
  0
LINE
  5
2E0
330
1F
100
AcDbEntity
  8
0
  6
Continuous
 62
     7
370
    25
100
AcDbLine
 10
118.4049083166
 20
200.7280608449
 30
0.0
 11
118.4049083166
 21
160.728061739
 31
0.0
  0
LINE
  5
2E1
330
1F
100
AcDbEntity
  8
0
  6
Continuous
 62
     7
370
    25
100
AcDbLine
 10
117.9049855344
 20
160.728061739
 30
0.0
 11
118.4049083166
 21
160.728061739
 31
0.0
  0
LINE
  5
2E2
330
1F
100
AcDbEntity
  8
0
  6
Continuous
 62
     7
370
    25
100
AcDbLine
 10
67.6581600927
 20
150.4812354032
 30
0.0
 11
67.6581600927
 21
149.981312621
 31
0.0
  0
ARC
  5
2E3
330
1F
100
AcDbEntity
  8
0
  6
Continuous
 62
     7
370
    25
100
AcDbCircle
 10
67.6581596456
 20
160.7280612919
 30
0.0
 40
10.74674924209708
100
AcDbArc
 50
180.0
 51
270.0
  0
ARC
  5
2E4
330
1F
100
AcDbEntity
  8
0
  6
Continuous
 62
     7
370
    25
100
AcDbCircle
 10
107.6581596456
 20
160.7280612919
 30
0.0
 40
10.74674924209708
100
AcDbArc
 50
270.0
 51
0.0
  0
LINE
  5
2E5
330
1F
100
AcDbEntity
  8
0
  6
Continuous
 62
     7
370
    25
100
AcDbLine
 10
107.6581591986
 20
150.4812354032
 30
0.0
 11
107.6581591986
 21
149.981312621
 31
0.0
  0
LINE
  5
2E6
330
1F
100
AcDbEntity
  8
0
  6
Continuous
 62
     7
370
    25
100
AcDbLine
 10
107.6581591986
 20
149.981312621
 30
0.0
 11
67.6581600927
 21
149.981312621
 31
0.0
  0
LINE
  5
2E7
330
1F
100
AcDbEntity
  8
0
  6
Continuous
 62
     7
370
    25
100
AcDbLine
 10
107.6581591986
 20
211.4748099629
 30
0.0
 11
107.6581591986
 21
211.7263154868
 31
0.0
  0
ARC
  5
2E8
330
1F
100
AcDbEntity
  8
0
  6
Continuous
 62
     7
370
    25
100
AcDbCircle
 10
107.6581596456
 20
200.7280612919
 30
0.0
 40
10.99825449350718
100
AcDbArc
 50
0.0
 51
90.0
  0
LINE
  5
2E9
330
1F
100
AcDbEntity
  8
0
  6
Continuous
 62
     7
370
    25
100
AcDbLine
 10
118.4049083166
 20
200.7280608449
 30
0.0
 11
118.6564138405
 21
200.7280608449
 31
0.0
  0
LINE
  5
2EA
330
1F
100
AcDbEntity
  8
0
  6
Continuous
 62
     7
370
    25
100
AcDbLine
 10
67.6581600927
 20
211.4748099629
 30
0.0
 11
67.6581600927
 21
211.7263154868
 31
0.0
  0
LINE
  5
2EB
330
1F
100
AcDbEntity
  8
0
  6
Continuous
 62
     7
370
    25
100
AcDbLine
 10
67.6581600927
 20
211.7263154868
 30
0.0
 11
107.6581591986
 21
211.7263154868
 31
0.0
  0
LINE
  5
2EC
330
1F
100
AcDbEntity
  8
0
  6
Continuous
 62
     7
370
    25
100
AcDbLine
 10
56.9114109747
 20
200.7280608449
 30
0.0
 11
56.6599054508
 21
200.7280608449
 31
0.0
  0
ARC
  5
2ED
330
1F
100
AcDbEntity
  8
0
  6
Continuous
 62
     7
370
    25
100
AcDbCircle
 10
67.6581596456
 20
200.7280612919
 30
0.0
 40
10.99825449350718
100
AcDbArc
 50
156.0478748429
 51
180.0
  0
LINE
  5
2EE
330
1F
100
AcDbEntity
  8
0
  6
Continuous
 62
     7
370
    25
100
AcDbLine
 10
57.6152207576
 20
205.1848565969
 30
0.0
 11
57.607019531
 21
205.1930578235
 31
0.0
  0
SPLINE
  5
2EF
330
1F
100
AcDbEntity
  8
0
  6
Continuous
 62
     7
370
    25
100
AcDbSpline
210
0.0
220
0.0
230
1.0
 70
     8
 71
     3
 72
    10
 73
     6
 74
     0
 42
0.000000001
 43
0.00000001
 40
0.0
 40
0.0
 40
0.0
 40
0.0
 40
0.5
 40
0.5
 40
1.0
 40
1.0
 40
1.0
 40
1.0
 10
57.77491688046807
 20
205.5024649412466
 30
0.0
 10
57.72678274555564
 20
205.4057373075483
 30
0.0
 10
57.68756030323318
 20
205.3247272067599
 30
0.0
 10
57.63266459122165
 20
205.2133401831496
 30
0.0
 10
57.61694341514006
 20
205.183133951053
 30
0.0
 10
57.61521993988048
 20
205.1848574263126
 30
0.0
  0
ELLIPSE
  5
2F0
330
1F
100
AcDbEntity
  8
0
  6
Continuous
 62
     7
370
    25
100
AcDbEllipse
 10
67.5625506046
 20
200.6324522509
 30
0.0
 11
7.73082241154853
 21
7.730822411532017
 31
0.0
210
0.0
220
0.0
230
1.0
 40
0.9999235226
 41
1.885501078319791
 42
1.894471363815128
  0
SPLINE
  5
2F1
330
1F
100
AcDbEntity
  8
0
  6
Continuous
 62
     7
370
    25
100
AcDbSpline
210
0.0
220
0.0
230
1.0
 70
     8
 71
     3
 72
     8
 73
     4
 74
     0
 42
0.000000001
 43
0.00000001
 40
0.0
 40
0.0
 40
0.0
 40
0.0
 40
1.0
 40
1.0
 40
1.0
 40
1.0
 10
57.86085597265172
 20
205.6675413781634
 30
0.0
 10
57.86001153100145
 20
205.6683858198137
 30
0.0
 10
57.84342283684465
 20
205.6380592728038
 30
0.0
 10
57.81900219698573
 20
205.5900690399491
 30
0.0
  0
LINE
  5
2F2
330
1F
100
AcDbEntity
  8
0
  6
Continuous
 62
     7
370
    25
100
AcDbLine
 10
57.8699281685
 20
205.6584695164
 30
0.0
 11
57.860855224
 21
205.6675405983
 31
0.0
  0
SPLINE
  5
2F3
330
1F
100
AcDbEntity
  8
0
  6
Continuous
 62
     7
370
    25
100
AcDbSpline
210
0.0
220
0.0
230
1.0
 70
     8
 71
     3
 72
    12
 73
     8
 74
     0
 42
0.000000001
 43
0.00000001
 40
0.0
 40
0.0
 40
0.0
 40
0.0
 40
0.2499999999999992
 40
0.2499999999999992
 40
0.4999999999999984
 40
0.4999999999999984
 40
1.0
 40
1.0
 40
1.0
 40
1.0
 10
58.28263444331463
 20
206.377133757399
 30
0.0
 10
58.22774664449384
 20
206.2860388131777
 30
0.0
 10
58.17383370172482
 20
206.1941040008685
 30
0.0
 10
58.07504053804593
 20
206.0218100595285
 30
0.0
 10
58.03058897095621
 20
205.942268905689
 30
0.0
 10
57.91723548386435
 20
205.7375715983267
 30
0.0
 10
57.87272747520402
 20
205.6556698756111
 30
0.0
 10
57.86992857437588
 20
205.6584687764392
 30
0.0
  0
ARC
  5
2F4
330
1F
100
AcDbEntity
  8
0
  6
Continuous
 62
     7
370
    25
100
AcDbCircle
 10
67.6581596456
 20
200.7280612919
 30
0.0
 40
10.94588929872251
100
AcDbArc
 50
121.0703916528
 51
148.9296083472
  0
SPLINE
  5
2F5
330
1F
100
AcDbEntity
  8
0
  6
Continuous
 62
     7
370
    25
100
AcDbSpline
210
0.0
220
0.0
230
1.0
 70
     8
 71
     3
 72
    12
 73
     8
 74
     0
 42
0.000000001
 43
0.00000001
 40
0.0
 40
0.0
 40
0.0
 40
0.0
 40
0.2500000000000013
 40
0.2500000000000013
 40
0.5000000000000026
 40
0.5000000000000026
 40
1.0
 40
1.0
 40
1.0
 40
1.0
 10
62.72775216112741
 20
210.5162923631909
 30
0.0
 10
62.72915158658925
 20
210.5148929377291
 30
0.0
 10
62.70999770936414
 20
210.5032449228931
 30
0.0
 10
62.63537267224646
 20
210.4612756266661
 30
0.0
 10
62.57977077159398
 20
210.4308430666475
 30
0.0
 10
62.37708499308268
 20
210.3186037519726
 30
0.0
 10
62.19153490336581
 20
210.2135174460938
 30
0.0
 10
62.00908718016768
 20
210.1035864942521
 30
0.0
  0
LINE
  5
2F6
330
1F
100
AcDbEntity
  8
0
  6
Continuous
 62
     7
370
    25
100
AcDbLine
 10
62.7186803393
 20
210.5253657136
 30
0.0
 11
62.7277514212
 21
210.5162927691
 31
0.0
  0
SPLINE
  5
2F7
330
1F
100
AcDbEntity
  8
0
  6
Continuous
 62
     7
370
    25
100
AcDbSpline
210
0.0
220
0.0
230
1.0
 70
     8
 71
     3
 72
     8
 73
     4
 74
     0
 42
0.000000001
 43
0.00000001
 40
0.0
 40
0.0
 40
0.0
 40
0.0
 40
1.0
 40
1.0
 40
1.0
 40
1.0
 10
62.79615189761726
 20
210.567218740581
 30
0.0
 10
62.74884557856
 20
210.5431461217994
 30
0.0
 10
62.71784414190475
 20
210.5262003824135
 30
0.0
 10
62.71867955940322
 20
210.5253649649151
 30
0.0
  0
ELLIPSE
  5
2F8
330
1F
100
AcDbEntity
  8
0
  6
Continuous
 62
     7
370
    25
100
AcDbEllipse
 10
67.7537686867
 20
200.823670333
 30
0.0
 11
7.730822411536224
 21
7.730822411544494
 31
0.0
210
0.0
220
0.0
230
1.0
 40
0.9999235226
 41
1.247121289775225
 42
1.256091575270566
  0
SPLINE
  5
2F9
330
1F
100
AcDbEntity
  8
0
  6
Continuous
 62
     7
370
    25
100
AcDbSpline
210
0.0
220
0.0
230
1.0
 70
     8
 71
     3
 72
    10
 73
     6
 74
     0
 42
0.000000001
 43
0.00000001
 40
0.0
 40
0.0
 40
0.0
 40
0.0
 40
0.5
 40
0.5
 40
1.0
 40
1.0
 40
1.0
 40
1.0
 10
63.20136351125387
 20
210.7710009976863
 30
0.0
 10
63.20308669904139
 20
210.7692778098988
 30
0.0
 10
63.17303688921959
 20
210.7536341119176
 30
0.0
 10
63.06153610456477
 20
210.698680702693
 30
0.0
 10
62.98047783877475
 20
210.6594353101408
 30
0.0
 10
62.88375599631982
 20
210.6113040570986
 30
0.0
  0
LINE
  5
2FA
330
1F
100
AcDbEntity
  8
0
  6
Continuous
 62
     7
370
    25
100
AcDbLine
 10
63.193163114
 20
210.7792014066
 30
0.0
 11
63.2013643406
 21
210.77100018
 31
0.0
  0
ARC
  5
2FB
330
1F
100
AcDbEntity
  8
0
  6
Continuous
 62
     7
370
    25
100
AcDbCircle
 10
67.6581596456
 20
200.7280612919
 30
0.0
 40
10.99825449350717
100
AcDbArc
 50
90.0
 51
113.9521251571
  0
LINE
  5
2FC
330
1F
100
AcDbEntity
  8
0
  6
Continuous
 62
     7
370
    25
100
AcDbLine
 10
56.9114109747
 20
160.728061739
 30
0.0
 11
56.6599054508
 21
160.728061739
 31
0.0
  0
LINE
  5
2FD
330
1F
100
AcDbEntity
  8
0
  6
Continuous
 62
     7
370
    25
100
AcDbLine
 10
56.6599054508
 20
160.728061739
 30
0.0
 11
56.6599054508
 21
200.7280608449
 31
0.0
  0
LINE
  5
2FE
330
1F
100
AcDbEntity
  8
0
  6
Continuous
 62
     7
370
    25
100
AcDbLine
 10
118.6564138405
 20
200.7280608449
 30
0.0
 11
118.6564138405
 21
160.728061739
 31
0.0
  0
LINE
  5
2FF
330
1F
100
AcDbEntity
  8
0
  6
Continuous
 62
     7
370
    25
100
AcDbLine
 10
118.4049083166
 20
160.728061739
 30
0.0
 11
118.6564138405
 21
160.728061739
 31
0.0
  0
LINE
  5
300
330
1F
100
AcDbEntity
  8
0
  6
Continuous
 62
     7
370
    25
100
AcDbLine
 10
67.6581600927
 20
149.981312621
 30
0.0
 11
67.6581600927
 21
149.7298070971
 31
0.0
  0
ARC
  5
301
330
1F
100
AcDbEntity
  8
0
  6
Continuous
 62
     7
370
    25
100
AcDbCircle
 10
67.6581596456
 20
160.7280612919
 30
0.0
 40
10.99825449350718
100
AcDbArc
 50
180.0
 51
270.0
  0
ARC
  5
302
330
1F
100
AcDbEntity
  8
0
  6
Continuous
 62
     7
370
    25
100
AcDbCircle
 10
107.6581596456
 20
160.7280612919
 30
0.0
 40
10.99825449350718
100
AcDbArc
 50
270.0
 51
0.0
  0
LINE
  5
303
330
1F
100
AcDbEntity
  8
0
  6
Continuous
 62
     7
370
    25
100
AcDbLine
 10
107.6581591986
 20
149.981312621
 30
0.0
 11
107.6581591986
 21
149.7298070971
 31
0.0
  0
LINE
  5
304
330
1F
100
AcDbEntity
  8
0
  6
Continuous
 62
     7
370
    25
100
AcDbLine
 10
107.6581591986
 20
149.7298070971
 30
0.0
 11
67.6581600927
 21
149.7298070971
 31
0.0
  0
SPLINE
  5
305
330
1F
100
AcDbEntity
  8
0
  6
Continuous
 62
     7
370
    25
100
AcDbSpline
210
0.0
220
0.0
230
1.0
 70
     8
 71
     3
 72
    12
 73
     8
 74
     0
 42
0.000000001
 43
0.00000001
 40
0.0
 40
0.0
 40
0.0
 40
0.0
 40
0.2500000000000007
 40
0.2500000000000007
 40
0.5000000000000013
 40
0.5000000000000013
 40
1.0
 40
1.0
 40
1.0
 40
1.0
 10
57.99122379415432
 20
205.9402244219372
 30
0.0
 10
57.94033431401209
 20
205.8458403192568
 30
0.0
 10
57.89055629908998
 20
205.7508017342679
 30
0.0
 10
57.79920581014705
 20
205.5721003074774
 30
0.0
 10
57.75811103630733
 20
205.4894396575314
 30
0.0
 10
57.65303339161708
 20
205.2758466591158
 30
0.0
 10
57.61121290914353
 20
205.1888644570496
 30
0.0
 10
57.6083423807041
 20
205.191734985489
 30
0.0
  0
SPLINE
  5
306
330
1F
100
AcDbEntity
  8
0
  6
Continuous
 62
     7
370
    25
100
AcDbSpline
210
0.0
220
0.0
230
1.0
 70
     8
 71
     3
 72
    12
 73
     8
 74
     0
 42
0.000000001
 43
0.00000001
 40
0.0
 40
0.0
 40
0.0
 40
0.0
 40
0.2500000000000006
 40
0.2500000000000006
 40
0.5000000000000013
 40
0.5000000000000013
 40
1.0
 40
1.0
 40
1.0
 40
1.0
 10
63.19448595207739
 20
210.7778785568626
 30
0.0
 10
63.19592060735255
 20
210.7764439015874
 30
0.0
 10
63.17557307059482
 20
210.7654393923126
 30
0.0
 10
63.09697958214146
 20
210.7262122370432
 30
0.0
 10
63.0385750023298
 20
210.6978655216076
 30
0.0
 10
62.82693208462867
 20
210.5937477615709
 30
0.0
 10
62.63508415893411
 20
210.4969483364188
 30
0.0
 10
62.44599651562918
 20
210.3949971434123
 30
0.0
  0
ARC
  5
307
330
1F
100
AcDbEntity
  8
0
  6
Continuous
 62
     7
370
    25
100
AcDbCircle
 10
67.6581596456
 20
200.7280612919
 30
0.0
 40
10.98254493507177
100
AcDbArc
 50
118.3324042333
 51
151.6675957667
  0
LINE
  5
308
330
1F
100
AcDbEntity
  8
0
  6
Continuous
 62
     8
370
    25
100
AcDbLine
 10
66.6071346276
 20
194.3668464008
 30
0.0
 11
66.5804447852
 21
194.3668464008
 31
0.0
  0
LINE
  5
309
330
1F
100
AcDbEntity
  8
0
  6
Continuous
 62
     8
370
    25
100
AcDbLine
 10
66.5804447852
 20
194.2892756123
 30
0.0
 11
66.6071346276
 21
194.2892756123
 31
0.0
  0
LINE
  5
30A
330
1F
100
AcDbEntity
  8
0
  6
Continuous
 62
     8
370
    25
100
AcDbLine
 10
57.9912236206
 20
205.9402243975
 30
0.0
 11
58.0160582684
 21
205.9153897497
 31
0.0
  0
LINE
  5
30B
330
1F
100
AcDbEntity
  8
0
  6
Continuous
 62
     8
370
    25
100
AcDbLine
 10
62.44599654
 20
210.3949973169
 30
0.0
 11
62.4707604073
 21
210.3702334497
 31
0.0
  0
DIMENSION
  5
30C
330
1F
100
AcDbEntity
  8
CENTER
100
AcDbDimension
  2
_D
 10
118.6564141392
 20
227.9377497331
 30
0.0
 11
85.8063000915
 21
227.9377497331
 31
0.0
 70
   160
  1
<>
 71
     2
 42
-1.0
  3
SLDDIMSTYLE0
100
AcDbAlignedDimension
 13
56.6599051521
 23
200.7280612919
 33
0.0
 14
118.6564141392
 24
200.7280612919
 34
0.0
100
AcDbRotatedDimension
  0
DIMENSION
  5
317
330
1F
100
AcDbEntity
  8
CENTER
100
AcDbDimension
  2
_D_1
 10
46.4496494581
 20
149.7298067984
 30
0.0
 11
46.4496494581
 21
184.576634567
 31
0.0
 70
   160
  1
<>
 71
     2
 42
-1.0
  3
SLDDIMSTYLE0
100
AcDbAlignedDimension
 13
67.6581596456
 23
211.7263157854
 33
0.0
 14
67.6581596456
 24
149.7298067984
 34
0.0
 50
90.0
100
AcDbRotatedDimension
  0
LINE
  5
321
330
1F
100
AcDbEntity
  8
0
  6
Continuous
 62
     7
370
    25
100
AcDbLine
 10
170.4620470008
 20
200.0780610177
 30
0.0
 11
170.2620464092
 21
200.0780610177
 31
0.0
  0
LINE
  5
322
330
1F
100
AcDbEntity
  8
0
  6
Continuous
 62
     7
370
    25
100
AcDbLine
 10
170.2620464092
 20
188.5780609954
 30
0.0
 11
170.4620470008
 21
188.5780609954
 31
0.0
  0
ARC
  5
323
330
1F
100
AcDbEntity
  8
0
  6
Continuous
 62
     7
370
    25
100
AcDbCircle
 10
201.4620466655
 20
195.5835482809
 30
0.0
 40
0.5
100
AcDbArc
 50
270.0
 51
0.0
  0
ARC
  5
324
330
1F
100
AcDbEntity
  8
0
  6
Continuous
 62
     7
370
    25
100
AcDbCircle
 10
201.4620466655
 20
204.9048686244
 30
0.0
 40
0.5
100
AcDbArc
 50
0.0
 51
90.0
  0
ARC
  5
325
330
1F
100
AcDbEntity
  8
0
  6
Continuous
 62
     7
370
    25
100
AcDbCircle
 10
201.4620466655
 20
156.5512539594
 30
0.0
 40
0.5
100
AcDbArc
 50
270.0
 51
0.0
  0
ARC
  5
326
330
1F
100
AcDbEntity
  8
0
  6
Continuous
 62
     7
370
    25
100
AcDbCircle
 10
201.4620466655
 20
165.8725743029
 30
0.0
 40
0.5
100
AcDbArc
 50
0.0
 51
90.0
  0
LINE
  5
327
330
1F
100
AcDbEntity
  8
0
  6
Continuous
 62
     7
370
    25
100
AcDbLine
 10
170.2620464092
 20
193.8269158635
 30
0.0
 11
170.4620470008
 21
193.8269158635
 31
0.0
  0
LINE
  5
328
330
1F
100
AcDbEntity
  8
0
  6
Continuous
 62
     7
370
    25
100
AcDbLine
 10
170.2620464092
 20
193.8269158635
 30
0.0
 11
170.2620464092
 21
200.0780610177
 31
0.0
  0
LINE
  5
329
330
1F
100
AcDbEntity
  8
0
  6
Continuous
 62
     7
370
    25
100
AcDbLine
 10
170.2620464092
 20
188.5780609954
 30
0.0
 11
170.2620464092
 21
188.599941488
 31
0.0
  0
LINE
  5
32A
330
1F
100
AcDbEntity
  8
0
  6
Continuous
 62
     7
370
    25
100
AcDbLine
 10
170.2620464092
 20
188.599941488
 30
0.0
 11
170.4620470008
 21
188.599941488
 31
0.0
  0
LINE
  5
32B
330
1F
100
AcDbEntity
  8
0
  6
Continuous
 62
     7
370
    25
100
AcDbLine
 10
170.2620464092
 20
193.5287399027
 30
0.0
 11
170.4620470008
 21
193.5287399027
 31
0.0
  0
LINE
  5
32C
330
1F
100
AcDbEntity
  8
0
  6
Continuous
 62
     7
370
    25
100
AcDbLine
 10
170.2620464092
 20
193.5287399027
 30
0.0
 11
170.2620464092
 21
193.6422420475
 31
0.0
  0
LINE
  5
32D
330
1F
100
AcDbEntity
  8
0
  6
Continuous
 62
     7
370
    25
100
AcDbLine
 10
170.2620464092
 20
193.6422420475
 30
0.0
 11
170.4620470008
 21
193.6422420475
 31
0.0
  0
LINE
  5
32E
330
1F
100
AcDbEntity
  8
0
  6
Continuous
 62
     7
370
    25
100
AcDbLine
 10
170.2620464092
 20
190.9898251105
 30
0.0
 11
170.4620470008
 21
190.9898251105
 31
0.0
  0
LINE
  5
32F
330
1F
100
AcDbEntity
  8
0
  6
Continuous
 62
     7
370
    25
100
AcDbLine
 10
170.2620464092
 20
190.9898251105
 30
0.0
 11
170.2620464092
 21
193.5287399027
 31
0.0
  0
LINE
  5
330
330
1F
100
AcDbEntity
  8
0
  6
Continuous
 62
     7
370
    25
100
AcDbLine
 10
170.2620464092
 20
189.7173013348
 30
0.0
 11
170.4620470008
 21
189.7173013348
 31
0.0
  0
LINE
  5
331
330
1F
100
AcDbEntity
  8
0
  6
Continuous
 62
     7
370
    25
100
AcDbLine
 10
170.2620464092
 20
189.7173013348
 30
0.0
 11
170.2620464092
 21
190.9898251105
 31
0.0
  0
LINE
  5
332
330
1F
100
AcDbEntity
  8
0
  6
Continuous
 62
     7
370
    25
100
AcDbLine
 10
170.2620464092
 20
193.6422420475
 30
0.0
 11
170.2620464092
 21
193.8269158635
 31
0.0
  0
LINE
  5
333
330
1F
100
AcDbEntity
  8
0
  6
Continuous
 62
     7
370
    25
100
AcDbLine
 10
170.2620464092
 20
188.7980626706
 30
0.0
 11
170.4620470008
 21
188.7980626706
 31
0.0
  0
LINE
  5
334
330
1F
100
AcDbEntity
  8
0
  6
Continuous
 62
     7
370
    25
100
AcDbLine
 10
170.2620464092
 20
188.7980626706
 30
0.0
 11
170.2620464092
 21
189.7173013348
 31
0.0
  0
LINE
  5
335
330
1F
100
AcDbEntity
  8
0
  6
Continuous
 62
     7
370
    25
100
AcDbLine
 10
170.2620464092
 20
188.6338900584
 30
0.0
 11
170.4620470008
 21
188.6338900584
 31
0.0
  0
LINE
  5
336
330
1F
100
AcDbEntity
  8
0
  6
Continuous
 62
     7
370
    25
100
AcDbLine
 10
170.2620464092
 20
188.6338900584
 30
0.0
 11
170.2620464092
 21
188.7980626706
 31
0.0
  0
LINE
  5
337
330
1F
100
AcDbEntity
  8
0
  6
Continuous
 62
     7
370
    25
100
AcDbLine
 10
170.2620464092
 20
188.599941488
 30
0.0
 11
170.2620464092
 21
188.6338900584
 31
0.0
  0
LINE
  5
338
330
1F
100
AcDbEntity
  8
0
  6
Continuous
 62
     7
370
    25
100
AcDbLine
 10
201.4620474255
 20
168.2280611057
 30
0.0
 11
201.4620474255
 21
160.728061739
 31
0.0
  0
LINE
  5
339
330
1F
100
AcDbEntity
  8
0
  6
Continuous
 62
     7
370
    25
100
AcDbLine
 10
200.953320851
 20
160.728061739
 30
0.0
 11
201.4620474255
 21
160.728061739
 31
0.0
  0
LWPOLYLINE
  5
33A
330
1F
100
AcDbEntity
  8
0
  6
Continuous
 62
     7
370
    25
100
AcDbPolyline
 90
       10
 70
   128
 43
0.0
 10
201.4620474255
 20
168.2280611057
 10
201.4542820579
 20
168.2281970787
 10
201.4312262362
 20
168.2285994101
 10
201.3935970789
 20
168.2292559925
 10
201.3425643271
 20
168.2301472682
 10
201.2797112292
 20
168.2312443662
 10
201.2069916999
 20
168.2325137589
 10
201.1266632652
 20
168.2339153994
 10
201.0412218696
 20
168.2354064468
 10
200.953320851
 20
168.2369412664
  0
LINE
  5
33B
330
1F
100
AcDbEntity
  8
0
  6
Continuous
 62
     7
370
    25
100
AcDbLine
 10
201.4620474255
 20
160.728061739
 30
0.0
 11
201.4620474255
 21
152.1368643079
 31
0.0
  0
ARC
  5
33C
330
1F
100
AcDbEntity
  8
0
  6
Continuous
 62
     7
370
    25
100
AcDbCircle
 10
200.9620466655
 20
152.1368649884
 30
0.0
 40
0.5000000000000068
100
AcDbArc
 50
269.0
 51
0.0
  0
LWPOLYLINE
  5
33D
330
1F
100
AcDbEntity
  8
0
  6
Continuous
 62
     7
370
    25
100
AcDbPolyline
 90
       10
 70
   128
 43
0.0
 10
201.4620474255
 20
188.2280611243
 10
201.4542820579
 20
188.2281966317
 10
201.4312262362
 20
188.2285994287
 10
201.3935970789
 20
188.2292560111
 10
201.3425643271
 20
188.2301468212
 10
201.2797112292
 20
188.2312439192
 10
201.2069916999
 20
188.2325133118
 10
201.1266632652
 20
188.233915418
 10
201.0412218696
 20
188.2354069311
 10
200.953320851
 20
188.236941285
  0
LINE
  5
33E
330
1F
100
AcDbEntity
  8
0
  6
Continuous
 62
     7
370
    25
100
AcDbLine
 10
201.4620474255
 20
188.2280611243
 30
0.0
 11
201.4620474255
 21
173.2280614596
 31
0.0
  0
LWPOLYLINE
  5
33F
330
1F
100
AcDbEntity
  8
0
  6
Continuous
 62
     7
370
    25
100
AcDbPolyline
 90
       10
 70
   128
 43
0.0
 10
200.953320851
 20
173.2191812988
 10
201.0412218696
 20
173.2207156527
 10
201.1266632652
 20
173.2222071659
 10
201.2069916999
 20
173.223609272
 10
201.2797112292
 20
173.2248786647
 10
201.3425643271
 20
173.2259757626
 10
201.3935970789
 20
173.2268665727
 10
201.4312262362
 20
173.2275231551
 10
201.4542820579
 20
173.2279259521
 10
201.4620474255
 20
173.2280614596
  0
LINE
  5
340
330
1F
100
AcDbEntity
  8
0
  6
Continuous
 62
     7
370
    25
100
AcDbLine
 10
201.4620474255
 20
200.7280608449
 30
0.0
 11
201.4620474255
 21
193.2280614782
 31
0.0
  0
LWPOLYLINE
  5
341
330
1F
100
AcDbEntity
  8
0
  6
Continuous
 62
     7
370
    25
100
AcDbPolyline
 90
       10
 70
   128
 43
0.0
 10
200.953320851
 20
193.2191813174
 10
201.0412218696
 20
193.220716137
 10
201.1266632652
 20
193.2222071845
 10
201.2069916999
 20
193.223608825
 10
201.2797112292
 20
193.2248782176
 10
201.3425643271
 20
193.2259753156
 10
201.3935970789
 20
193.2268665913
 10
201.4312262362
 20
193.2275231737
 10
201.4542820579
 20
193.2279255051
 10
201.4620474255
 20
193.2280614782
  0
LINE
  5
342
330
1F
100
AcDbEntity
  8
0
  6
Continuous
 62
     7
370
    25
100
AcDbLine
 10
200.953320851
 20
200.7280608449
 30
0.0
 11
201.4620474255
 21
200.7280608449
 31
0.0
  0
LINE
  5
343
330
1F
100
AcDbEntity
  8
0
  6
Continuous
 62
     7
370
    25
100
AcDbLine
 10
201.4620474255
 20
209.319258276
 30
0.0
 11
201.4620474255
 21
200.7280608449
 31
0.0
  0
ARC
  5
344
330
1F
100
AcDbEntity
  8
0
  6
Continuous
 62
     7
370
    25
100
AcDbCircle
 10
200.9620466655
 20
209.3192575954
 30
0.0
 40
0.5
100
AcDbArc
 50
0.0
 51
91.0
  0
LINE
  5
345
330
1F
100
AcDbEntity
  8
0
  6
Continuous
 62
     7
370
    25
100
AcDbLine
 10
201.4620474255
 20
173.2280614596
 30
0.0
 11
201.4620474255
 21
168.2280611057
 31
0.0
  0
LINE
  5
346
330
1F
100
AcDbEntity
  8
0
  6
Continuous
 62
     7
370
    25
100
AcDbLine
 10
201.4620474255
 20
193.2280614782
 30
0.0
 11
201.4620474255
 21
188.2280611243
 31
0.0
  0
ARC
  5
347
330
1F
100
AcDbEntity
  8
0
  6
Continuous
 62
     7
370
    25
100
AcDbCircle
 10
201.5245458765
 20
201.640743634
 30
0.0
 40
0.4463399720698682
100
AcDbArc
 50
11.4217419319
 51
98.0492535362
  0
LINE
  5
348
330
1F
100
AcDbEntity
  8
0
  6
Continuous
 62
     7
370
    25
100
AcDbLine
 10
201.9620465761
 20
201.7291320298
 30
0.0
 11
201.9620465761
 21
195.5835485641
 31
0.0
  0
ARC
  5
349
330
1F
100
AcDbEntity
  8
0
  6
Continuous
 62
     7
370
    25
100
AcDbCircle
 10
201.5245463678
 20
203.7620638574
 30
0.0
 40
0.4463398140105408
100
AcDbArc
 50
11.4219599618
 51
98.0493200976
  0
LINE
  5
34A
330
1F
100
AcDbEntity
  8
0
  6
Continuous
 62
     7
370
    25
100
AcDbLine
 10
201.9620465761
 20
203.8504538867
 30
0.0
 11
201.9620465761
 21
201.7291320298
 31
0.0
  0
LINE
  5
34B
330
1F
100
AcDbEntity
  8
0
  6
Continuous
 62
     7
370
    25
100
AcDbLine
 10
201.9620465761
 20
204.904869366
 30
0.0
 11
201.9620465761
 21
203.8504538867
 31
0.0
  0
ARC
  5
34C
330
1F
100
AcDbEntity
  8
0
  6
Continuous
 62
     7
370
    25
100
AcDbCircle
 10
201.5245492571
 20
162.608452603
 30
0.0
 40
0.4463361727071918
100
AcDbArc
 50
11.4215192649
 51
98.0497607946
  0
LINE
  5
34D
330
1F
100
AcDbEntity
  8
0
  6
Continuous
 62
     7
370
    25
100
AcDbLine
 10
201.9620465761
 20
162.6968385461
 30
0.0
 11
201.9620465761
 21
156.5512532178
 31
0.0
  0
ARC
  5
34E
330
1F
100
AcDbEntity
  8
0
  6
Continuous
 62
     7
370
    25
100
AcDbCircle
 10
201.5245475668
 20
164.729771371
 30
0.0
 40
0.4463380723789286
100
AcDbArc
 50
11.4216305983
 51
98.0495071654
  0
LINE
  5
34F
330
1F
100
AcDbEntity
  8
0
  6
Continuous
 62
     7
370
    25
100
AcDbLine
 10
201.9620465761
 20
164.8181585405
 30
0.0
 11
201.9620465761
 21
162.6968385461
 31
0.0
  0
LINE
  5
350
330
1F
100
AcDbEntity
  8
0
  6
Continuous
 62
     7
370
    25
100
AcDbLine
 10
201.9620465761
 20
165.8725740198
 30
0.0
 11
201.9620465761
 21
164.8181585405
 31
0.0
  0
LINE
  5
351
330
1F
100
AcDbEntity
  8
0
  6
Continuous
 62
     7
370
    25
100
AcDbLine
 10
170.9533205902
 20
200.7280608449
 30
0.0
 11
185.3620466681
 21
200.7280608449
 31
0.0
  0
LINE
  5
352
330
1F
100
AcDbEntity
  8
0
  6
Continuous
 62
     7
370
    25
100
AcDbLine
 10
170.9533205902
 20
160.728061739
 30
0.0
 11
185.3620466681
 21
160.728061739
 31
0.0
  0
LINE
  5
353
330
1F
100
AcDbEntity
  8
0
  6
Continuous
 62
     7
370
    25
100
AcDbLine
 10
170.9533205902
 20
200.7280608449
 30
0.0
 11
170.9533205902
 21
160.728061739
 31
0.0
  0
LINE
  5
354
330
1F
100
AcDbEntity
  8
0
  6
Continuous
 62
     7
370
    25
100
AcDbLine
 10
185.3620466681
 20
200.7280608449
 30
0.0
 11
185.3620466681
 21
160.728061739
 31
0.0
  0
LINE
  5
355
330
1F
100
AcDbEntity
  8
0
  6
Continuous
 62
     7
370
    25
100
AcDbLine
 10
170.9533205902
 20
211.4748099629
 30
0.0
 11
185.3620466681
 21
211.7263154868
 31
0.0
  0
LINE
  5
356
330
1F
100
AcDbEntity
  8
0
  6
Continuous
 62
     7
370
    25
100
AcDbLine
 10
170.9533205902
 20
211.4748099629
 30
0.0
 11
170.9533205902
 21
200.7280608449
 31
0.0
  0
LINE
  5
357
330
1F
100
AcDbEntity
  8
0
  6
Continuous
 62
     7
370
    25
100
AcDbLine
 10
185.3620466681
 20
211.7263154868
 30
0.0
 11
185.3620466681
 21
200.7280608449
 31
0.0
  0
LINE
  5
358
330
1F
100
AcDbEntity
  8
0
  6
Continuous
 62
     7
370
    25
100
AcDbLine
 10
170.9533205902
 20
149.981312621
 30
0.0
 11
185.3620466681
 21
149.7298070971
 31
0.0
  0
LINE
  5
359
330
1F
100
AcDbEntity
  8
0
  6
Continuous
 62
     7
370
    25
100
AcDbLine
 10
170.9533205902
 20
160.728061739
 30
0.0
 11
170.9533205902
 21
149.981312621
 31
0.0
  0
LINE
  5
35A
330
1F
100
AcDbEntity
  8
0
  6
Continuous
 62
     7
370
    25
100
AcDbLine
 10
185.3620466681
 20
160.728061739
 30
0.0
 11
185.3620466681
 21
149.7298070971
 31
0.0
  0
LINE
  5
35B
330
1F
100
AcDbEntity
  8
0
  6
Continuous
 62
     7
370
    25
100
AcDbLine
 10
170.4620470008
 20
200.7280608449
 30
0.0
 11
170.4620470008
 21
210.9748871807
 31
0.0
  0
ARC
  5
35C
330
1F
100
AcDbEntity
  8
0
  6
Continuous
 62
     7
370
    25
100
AcDbCircle
 10
170.9620466655
 20
210.9748866864
 30
0.0
 40
0.5000000000000068
100
AcDbArc
 50
91.0
 51
180.0
  0
LINE
  5
35D
330
1F
100
AcDbEntity
  8
0
  6
Continuous
 62
     7
370
    25
100
AcDbLine
 10
170.4620470008
 20
200.7280608449
 30
0.0
 11
170.9533205902
 21
200.7280608449
 31
0.0
  0
LINE
  5
35E
330
1F
100
AcDbEntity
  8
0
  6
Continuous
 62
     7
370
    25
100
AcDbLine
 10
170.4620470008
 20
160.728061739
 30
0.0
 11
170.4620470008
 21
200.7280608449
 31
0.0
  0
LINE
  5
35F
330
1F
100
AcDbEntity
  8
0
  6
Continuous
 62
     7
370
    25
100
AcDbLine
 10
170.4620470008
 20
160.728061739
 30
0.0
 11
170.9533205902
 21
160.728061739
 31
0.0
  0
LINE
  5
360
330
1F
100
AcDbEntity
  8
0
  6
Continuous
 62
     7
370
    25
100
AcDbLine
 10
170.4620470008
 20
150.4812354032
 30
0.0
 11
170.4620470008
 21
160.728061739
 31
0.0
  0
ARC
  5
361
330
1F
100
AcDbEntity
  8
0
  6
Continuous
 62
     7
370
    25
100
AcDbCircle
 10
170.9620466655
 20
150.4812358974
 30
0.0
 40
0.5000000000000068
100
AcDbArc
 50
180.0
 51
269.0
  0
LINE
  5
362
330
1F
100
AcDbEntity
  8
0
  6
Continuous
 62
     7
370
    25
100
AcDbLine
 10
185.562046663
 20
200.7280608449
 30
0.0
 11
185.562046663
 21
211.7263154868
 31
0.0
  0
LINE
  5
363
330
1F
100
AcDbEntity
  8
0
  6
Continuous
 62
     7
370
    25
100
AcDbLine
 10
200.4707728228
 20
211.4660834703
 30
0.0
 11
185.562046663
 21
211.7263154868
 31
0.0
  0
LINE
  5
364
330
1F
100
AcDbEntity
  8
0
  6
Continuous
 62
     7
370
    25
100
AcDbLine
 10
200.4707728228
 20
200.7280608449
 30
0.0
 11
200.4707728228
 21
211.4660834703
 31
0.0
  0
LINE
  5
365
330
1F
100
AcDbEntity
  8
0
  6
Continuous
 62
     7
370
    25
100
AcDbLine
 10
200.4707728228
 20
200.7280608449
 30
0.0
 11
185.562046663
 21
200.7280608449
 31
0.0
  0
LINE
  5
366
330
1F
100
AcDbEntity
  8
0
  6
Continuous
 62
     7
370
    25
100
AcDbLine
 10
185.562046663
 20
160.728061739
 30
0.0
 11
185.562046663
 21
200.7280608449
 31
0.0
  0
LINE
  5
367
330
1F
100
AcDbEntity
  8
0
  6
Continuous
 62
     7
370
    25
100
AcDbLine
 10
200.4707728228
 20
160.728061739
 30
0.0
 11
200.4707728228
 21
200.7280608449
 31
0.0
  0
LINE
  5
368
330
1F
100
AcDbEntity
  8
0
  6
Continuous
 62
     7
370
    25
100
AcDbLine
 10
200.4707728228
 20
160.728061739
 30
0.0
 11
185.562046663
 21
160.728061739
 31
0.0
  0
LINE
  5
369
330
1F
100
AcDbEntity
  8
0
  6
Continuous
 62
     7
370
    25
100
AcDbLine
 10
185.562046663
 20
149.7298070971
 30
0.0
 11
185.562046663
 21
160.728061739
 31
0.0
  0
LINE
  5
36A
330
1F
100
AcDbEntity
  8
0
  6
Continuous
 62
     7
370
    25
100
AcDbLine
 10
200.4707728228
 20
149.9900391135
 30
0.0
 11
200.4707728228
 21
160.728061739
 31
0.0
  0
LINE
  5
36B
330
1F
100
AcDbEntity
  8
0
  6
Continuous
 62
     7
370
    25
100
AcDbLine
 10
200.4707728228
 20
149.9900391135
 30
0.0
 11
185.562046663
 21
149.7298070971
 31
0.0
  0
LINE
  5
36C
330
1F
100
AcDbEntity
  8
0
  6
Continuous
 62
     7
370
    25
100
AcDbLine
 10
200.4707728228
 20
200.7280608449
 30
0.0
 11
200.9620464122
 21
200.7280608449
 31
0.0
  0
LINE
  5
36D
330
1F
100
AcDbEntity
  8
0
  6
Continuous
 62
     7
370
    25
100
AcDbLine
 10
200.9620464122
 20
200.7280608449
 30
0.0
 11
200.9620464122
 21
160.728061739
 31
0.0
  0
LINE
  5
36E
330
1F
100
AcDbEntity
  8
0
  6
Continuous
 62
     7
370
    25
100
AcDbLine
 10
200.9620464122
 20
160.728061739
 30
0.0
 11
200.4707728228
 21
160.728061739
 31
0.0
  0
ARC
  5
36F
330
1F
100
AcDbEntity
  8
0
  6
Continuous
 62
     7
370
    25
100
AcDbCircle
 10
200.4620466655
 20
210.966159154
 30
0.0
 40
0.5
100
AcDbArc
 50
0.0
 51
89.0
  0
LINE
  5
370
330
1F
100
AcDbEntity
  8
0
  6
Continuous
 62
     7
370
    25
100
AcDbLine
 10
200.9620464122
 20
210.9661588255
 30
0.0
 11
200.9620464122
 21
200.7280608449
 31
0.0
  0
LINE
  5
371
330
1F
100
AcDbEntity
  8
0
  6
Continuous
 62
     7
370
    25
100
AcDbLine
 10
200.9620464122
 20
160.728061739
 30
0.0
 11
200.9620464122
 21
150.4899637583
 31
0.0
  0
ARC
  5
372
330
1F
100
AcDbEntity
  8
0
  6
Continuous
 62
     7
370
    25
100
AcDbCircle
 10
200.4620466655
 20
150.4899634299
 30
0.0
 40
0.5000000000000063
100
AcDbArc
 50
271.0
 51
360.0
  0
LINE
  5
373
330
1F
100
AcDbEntity
  8
0
  6
Continuous
 62
     7
370
    25
100
AcDbLine
 10
185.3620466681
 20
210.9228243861
 30
0.0
 11
185.562046663
 21
210.9263149831
 31
0.0
  0
LINE
  5
374
330
1F
100
AcDbEntity
  8
0
  6
Continuous
 62
     7
370
    25
100
AcDbLine
 10
185.3620466681
 20
150.5332981977
 30
0.0
 11
185.562046663
 21
150.5298076007
 31
0.0
  0
LINE
  5
375
330
1F
100
AcDbEntity
  8
0
  6
Continuous
 62
     8
370
    25
100
AcDbLine
 10
185.3620466681
 20
200.7280608449
 30
0.0
 11
185.562046663
 21
200.7280608449
 31
0.0
  0
LINE
  5
376
330
1F
100
AcDbEntity
  8
0
  6
Continuous
 62
     8
370
    25
100
AcDbLine
 10
185.3620466681
 20
160.728061739
 30
0.0
 11
185.562046663
 21
160.728061739
 31
0.0
  0
DIMENSION
  5
377
330
1F
100
AcDbEntity
  8
CENTER
100
AcDbDimension
  2
_D_2
 10
201.9620466655
 20
227.9377497331
 30
0.0
 11
186.9597019153
 21
227.9377497331
 31
0.0
 70
   160
  1
<>
 71
     2
 42
-1.0
  3
SLDDIMSTYLE0
100
AcDbAlignedDimension
 13
170.4620466655
 23
200.7280612919
 33
0.0
 14
201.9620466655
 24
204.9048686244
 34
0.0
 50
0.0
100
AcDbRotatedDimension
  0
LINE
  5
381
330
1F
100
AcDbEntity
  8
0
  6
Continuous
 62
     7
370
    25
100
AcDbLine
 10
288.8263345551
 20
182.6914147749
 30
0.0
 11
289.4096975536
 21
183.2747780062
 31
0.0
  0
LINE
  5
382
330
1F
100
AcDbEntity
  8
0
  6
Continuous
 62
     7
370
    25
100
AcDbLine
 10
287.447476326
 20
184.0702730041
 30
0.0
 11
288.8263345551
 21
182.6914147749
 31
0.0
  0
LINE
  5
383
330
1F
100
AcDbEntity
  8
0
  6
Continuous
 62
     7
370
    25
100
AcDbLine
 10
287.447476326
 20
184.0702730041
 30
0.0
 11
288.0308395573
 21
184.6536362353
 31
0.0
  0
LINE
  5
384
330
1F
100
AcDbEntity
  8
0
  6
Continuous
 62
     7
370
    25
100
AcDbLine
 10
288.0308395573
 20
184.6536362353
 30
0.0
 11
289.4096975536
 21
183.2747780062
 31
0.0
  0
LINE
  5
385
330
1F
100
AcDbEntity
  8
0
  6
Continuous
 62
     7
370
    25
100
AcDbLine
 10
286.1309489556
 20
181.1981108548
 30
0.0
 11
287.5181869925
 21
182.5853487752
 31
0.0
  0
LINE
  5
386
330
1F
100
AcDbEntity
  8
0
  6
Continuous
 62
     7
370
    25
100
AcDbLine
 10
287.5181869925
 20
182.5853487752
 30
0.0
 11
288.1192276575
 21
181.9843079937
 31
0.0
  0
LINE
  5
387
330
1F
100
AcDbEntity
  8
0
  6
Continuous
 62
     7
370
    25
100
AcDbLine
 10
286.7319896207
 20
180.5970700733
 30
0.0
 11
288.1192276575
 21
181.9843079937
 31
0.0
  0
LINE
  5
388
330
1F
100
AcDbEntity
  8
0
  6
Continuous
 62
     7
370
    25
100
AcDbLine
 10
286.4221716621
 20
185.095577668
 30
0.0
 11
287.0055344277
 21
185.6789408993
 31
0.0
  0
LINE
  5
389
330
1F
100
AcDbEntity
  8
0
  6
Continuous
 62
     7
370
    25
100
AcDbLine
 10
282.462373408
 20
189.0553759221
 30
0.0
 11
283.0457361736
 21
189.6387386877
 31
0.0
  0
LINE
  5
38A
330
1F
100
AcDbEntity
  8
0
  6
Continuous
 62
     7
370
    25
100
AcDbLine
 10
282.462373408
 20
189.0553759221
 30
0.0
 11
286.4221716621
 21
185.095577668
 31
0.0
  0
LINE
  5
38B
330
1F
100
AcDbEntity
  8
0
  6
Continuous
 62
     7
370
    25
100
AcDbLine
 10
283.0457361736
 20
189.6387386877
 30
0.0
 11
287.0055344277
 21
185.6789408993
 31
0.0
  0
LINE
  5
38C
330
1F
100
AcDbEntity
  8
0
  6
Continuous
 62
     7
370
    25
100
AcDbLine
 10
280.5358991348
 20
191.9372269693
 30
0.0
 11
280.6415735134
 21
192.0429022792
 31
0.0
  0
LINE
  5
38D
330
1F
100
AcDbEntity
  8
0
  6
Continuous
 62
     7
370
    25
100
AcDbLine
 10
281.4370682784
 20
190.0806810517
 30
0.0
 11
282.0204319753
 21
190.6640438173
 31
0.0
  0
LINE
  5
38E
330
1F
100
AcDbEntity
  8
0
  6
Continuous
 62
     7
370
    25
100
AcDbLine
 10
280.4901935481
 20
191.0275557819
 30
0.0
 11
281.4370682784
 21
190.0806810517
 31
0.0
  0
LINE
  5
38F
330
1F
100
AcDbEntity
  8
0
  6
Continuous
 62
     7
370
    25
100
AcDbLine
 10
280.6415735134
 20
192.0429022792
 30
0.0
 11
282.0204319753
 21
190.6640438173
 31
0.0
  0
LINE
  5
390
330
1F
100
AcDbEntity
  8
0
  6
Continuous
 62
     7
370
    25
100
AcDbLine
 10
285.9979076632
 20
182.8752625078
 30
0.0
 11
285.5453589321
 21
183.3278110061
 31
0.0
  0
LINE
  5
391
330
1F
100
AcDbEntity
  8
0
  6
Continuous
 62
     7
370
    25
100
AcDbLine
 10
285.5453589321
 20
183.3278110061
 30
0.0
 11
285.9979076632
 21
183.7803592715
 31
0.0
  0
LINE
  5
392
330
1F
100
AcDbEntity
  8
0
  6
Continuous
 62
     7
370
    25
100
AcDbLine
 10
285.9979076632
 20
183.7803592715
 30
0.0
 11
286.4504559287
 21
183.3278110061
 31
0.0
  0
LINE
  5
393
330
1F
100
AcDbEntity
  8
0
  6
Continuous
 62
     7
370
    25
100
AcDbLine
 10
286.4504559287
 20
183.3278110061
 30
0.0
 11
285.9979076632
 21
182.8752625078
 31
0.0
  0
LINE
  5
394
330
1F
100
AcDbEntity
  8
0
  6
Continuous
 62
     7
370
    25
100
AcDbLine
 10
284.682688801
 20
185.095577668
 30
0.0
 11
284.2301400699
 21
184.6430294025
 31
0.0
  0
LINE
  5
395
330
1F
100
AcDbEntity
  8
0
  6
Continuous
 62
     7
370
    25
100
AcDbLine
 10
284.2301400699
 20
184.6430294025
 30
0.0
 11
283.7775918045
 21
185.095577668
 31
0.0
  0
LINE
  5
396
330
1F
100
AcDbEntity
  8
0
  6
Continuous
 62
     7
370
    25
100
AcDbLine
 10
283.7775918045
 20
185.095577668
 30
0.0
 11
284.2301400699
 21
185.5481263991
 31
0.0
  0
LINE
  5
397
330
1F
100
AcDbEntity
  8
0
  6
Continuous
 62
     7
370
    25
100
AcDbLine
 10
284.2301400699
 20
185.5481263991
 30
0.0
 11
284.682688801
 21
185.095577668
 31
0.0
  0
LINE
  5
398
330
1F
100
AcDbEntity
  8
0
  6
Continuous
 62
     7
370
    25
100
AcDbLine
 10
282.9149216734
 20
186.8633447956
 30
0.0
 11
282.462373408
 21
186.4107965301
 31
0.0
  0
LINE
  5
399
330
1F
100
AcDbEntity
  8
0
  6
Continuous
 62
     7
370
    25
100
AcDbLine
 10
282.462373408
 20
186.4107965301
 30
0.0
 11
282.0098251425
 21
186.8633447956
 31
0.0
  0
LINE
  5
39A
330
1F
100
AcDbEntity
  8
0
  6
Continuous
 62
     7
370
    25
100
AcDbLine
 10
282.0098251425
 20
186.8633447956
 30
0.0
 11
282.462373408
 21
187.3158930611
 31
0.0
  0
LINE
  5
39B
330
1F
100
AcDbEntity
  8
0
  6
Continuous
 62
     7
370
    25
100
AcDbLine
 10
282.462373408
 20
187.3158930611
 30
0.0
 11
282.9149216734
 21
186.8633447956
 31
0.0
  0
LINE
  5
39C
330
1F
100
AcDbEntity
  8
0
  6
Continuous
 62
     7
370
    25
100
AcDbLine
 10
281.1471550115
 20
188.6311119232
 30
0.0
 11
280.8475047671
 21
188.3314616788
 31
0.0
  0
LINE
  5
39D
330
1F
100
AcDbEntity
  8
0
  6
Continuous
 62
     7
370
    25
100
AcDbLine
 10
280.6754699298
 20
189.0645233724
 30
0.0
 11
280.694606746
 21
189.0836601887
 31
0.0
  0
LINE
  5
39E
330
1F
100
AcDbEntity
  8
0
  6
Continuous
 62
     7
370
    25
100
AcDbLine
 10
280.694606746
 20
189.0836601887
 30
0.0
 11
281.1471550115
 21
188.6311119232
 31
0.0
  0
LINE
  5
39F
330
1F
100
AcDbEntity
  8
0
  6
Continuous
 62
     7
370
    25
100
AcDbLine
 10
288.2252936572
 20
183.2924556728
 30
0.0
 11
287.5181869925
 21
182.5853487752
 31
0.0
  0
LINE
  5
3A0
330
1F
100
AcDbEntity
  8
0
  6
Continuous
 62
     7
370
    25
100
AcDbLine
 10
288.1192276575
 20
181.9843079937
 30
0.0
 11
288.8263345551
 21
182.6914147749
 31
0.0
  0
LINE
  5
3A1
330
1F
100
AcDbEntity
  8
0
  6
Continuous
 62
     7
370
    25
100
AcDbLine
 10
280.4942233809
 20
190.6934708167
 30
0.0
 11
280.6592509471
 21
190.8584983829
 31
0.0
  0
LINE
  5
3A2
330
1F
100
AcDbEntity
  8
0
  6
Continuous
 62
     7
370
    25
100
AcDbLine
 10
286.4221716621
 20
185.095577668
 30
0.0
 11
287.447476326
 21
184.0702730041
 31
0.0
  0
LINE
  5
3A3
330
1F
100
AcDbEntity
  8
0
  6
Continuous
 62
     7
370
    25
100
AcDbLine
 10
288.0308395573
 20
184.6536362353
 30
0.0
 11
287.0055344277
 21
185.6789408993
 31
0.0
  0
LINE
  5
3A4
330
1F
100
AcDbEntity
  8
0
  6
Continuous
 62
     7
370
    25
100
AcDbLine
 10
281.4370682784
 20
190.0806810517
 30
0.0
 11
282.462373408
 21
189.0553759221
 31
0.0
  0
LINE
  5
3A5
330
1F
100
AcDbEntity
  8
0
  6
Continuous
 62
     7
370
    25
100
AcDbLine
 10
283.0457361736
 20
189.6387386877
 30
0.0
 11
282.0204319753
 21
190.6640438173
 31
0.0
  0
LWPOLYLINE
  5
3A6
330
1F
100
AcDbEntity
  8
0
  6
Continuous
 62
     7
370
    25
100
AcDbPolyline
 90
        9
 70
   128
 43
0.0
 10
295.1155540389
 20
175.3758999329
 10
295.0960866031
 20
175.3564324971
 10
295.0680165407
 20
175.3283624347
 10
295.0320935663
 20
175.2924394604
 10
294.989277408
 20
175.249623302
 10
294.9407114968
 20
175.201057158
 10
294.887693631
 20
175.1480392921
 10
294.8316398863
 20
175.0919857803
 10
294.7740475968
 20
175.034393258
  0
ARC
  5
3A7
330
1F
100
AcDbEntity
  8
0
  6
Continuous
 62
     7
370
    25
100
AcDbCircle
 10
295.0488742382
 20
172.6151431659
 30
0.0
 40
1.450000000000023
100
AcDbArc
 50
306.4294764943
 51
144.4011237994
  0
LINE
  5
3A8
330
1F
100
AcDbEntity
  8
0
  6
Continuous
 62
     7
370
    25
100
AcDbLine
 10
293.5343571328
 20
173.794702794
 30
0.0
 11
294.7740475968
 21
175.034393258
 31
0.0
  0
ARC
  5
3A9
330
1F
100
AcDbEntity
  8
0
  6
Continuous
 62
     7
370
    25
100
AcDbCircle
 10
297.7429510746
 20
169.9210663296
 30
0.0
 40
1.45000000000003
100
AcDbArc
 50
344.9448940921
 51
139.4342185624
  0
LINE
  5
3AA
330
1F
100
AcDbEntity
  8
0
  6
Continuous
 62
     7
370
    25
100
AcDbLine
 10
302.6777245425
 20
168.9616862494
 30
0.0
 11
295.6895323326
 21
175.9498782266
 31
0.0
  0
LINE
  5
3AB
330
1F
100
AcDbEntity
  8
0
  6
Continuous
 62
     7
370
    25
100
AcDbLine
 10
295.1155540389
 20
175.3758999329
 30
0.0
 11
295.6895323326
 21
175.9498782266
 31
0.0
  0
LINE
  5
3AC
330
1F
100
AcDbEntity
  8
0
  6
Continuous
 62
     7
370
    25
100
AcDbLine
 10
299.0696225636
 20
169.5710664425
 30
0.0
 11
299.0984954261
 21
169.5710664425
 31
0.0
  0
LINE
  5
3AD
330
1F
100
AcDbEntity
  8
0
  6
Continuous
 62
     7
370
    25
100
AcDbLine
 10
299.0984954261
 20
170.2710661847
 30
0.0
 11
297.5614248165
 21
170.2710661847
 31
0.0
  0
ARC
  5
3AE
330
1F
100
AcDbEntity
  8
0
  6
Continuous
 62
     7
370
    25
100
AcDbCircle
 10
297.7429510746
 20
169.9210663296
 30
0.0
 40
1.400000000000042
100
AcDbArc
 50
14.4775121859
 51
139.2634821977
  0
LINE
  5
3AF
330
1F
100
AcDbEntity
  8
0
  6
Continuous
 62
     7
370
    25
100
AcDbLine
 10
295.0639168587
 20
172.2651433009
 30
0.0
 11
296.4044185676
 21
172.2651433009
 31
0.0
  0
ARC
  5
3B0
330
1F
100
AcDbEntity
  8
0
  6
Continuous
 62
     7
370
    25
100
AcDbCircle
 10
295.0488742382
 20
172.6151431659
 30
0.0
 40
1.400000000000006
100
AcDbArc
 50
305.989804648
 51
345.5224878141
  0
LINE
  5
3B1
330
1F
100
AcDbEntity
  8
0
  6
Continuous
 62
     7
370
    25
100
AcDbLine
 10
296.4044185676
 20
172.9651430431
 30
0.0
 11
294.3639166508
 21
172.9651430431
 31
0.0
  0
ARC
  5
3B2
330
1F
100
AcDbEntity
  8
0
  6
Continuous
 62
     7
370
    25
100
AcDbCircle
 10
295.0488742382
 20
172.6151431659
 30
0.0
 40
1.399999999999999
100
AcDbArc
 50
14.4775121859
 51
144.7400921257
  0
ARC
  5
3B3
330
1F
100
AcDbEntity
  8
0
  6
Continuous
 62
     7
370
    25
100
AcDbCircle
 10
297.7429510746
 20
169.9210663296
 30
0.0
 40
1.399999999999958
100
AcDbArc
 50
345.5224878141
 51
14.4775121859
  0
ARC
  5
3B4
330
1F
100
AcDbEntity
  8
0
  6
Continuous
 62
     7
370
    25
100
AcDbCircle
 10
295.0488742382
 20
172.6151431659
 30
0.0
 40
1.400000000000006
100
AcDbArc
 50
345.5224878141
 51
14.4775121859
  0
LINE
  5
3B5
330
1F
100
AcDbEntity
  8
0
  6
Continuous
 62
     7
370
    25
100
AcDbLine
 10
295.9999328334
 20
176.2602787275
 30
0.0
 11
295.6895323326
 21
175.9498782266
 31
0.0
  0
LINE
  5
3B6
330
1F
100
AcDbEntity
  8
0
  6
Continuous
 62
     7
370
    25
100
AcDbLine
 10
296.2120650657
 20
176.4724107269
 30
0.0
 11
303.6581538939
 21
169.0263218987
 31
0.0
  0
LWPOLYLINE
  5
3B7
330
1F
100
AcDbEntity
  8
0
  6
Continuous
 62
     7
370
    25
100
AcDbPolyline
 90
        9
 70
   128
 43
0.0
 10
295.9999328334
 20
176.2602787275
 10
296.0413177819
 20
176.301663443
 10
296.0811122642
 20
176.3414579253
 10
296.1177870487
 20
176.3781329427
 10
296.1499328115
 20
176.4102784726
 10
296.176314386
 20
176.4366600472
 10
296.1959173293
 20
176.4562629904
 10
296.2079886668
 20
176.4683347936
 10
296.2120650657
 20
176.4724107269
  0
LINE
  5
3B8
330
1F
100
AcDbEntity
  8
0
  6
Continuous
 62
     7
370
    25
100
AcDbLine
 10
294.7740475968
 20
175.034393258
 30
0.0
 11
289.3858938799
 21
180.4225470913
 31
0.0
  0
LWPOLYLINE
  5
3B9
330
1F
100
AcDbEntity
  8
0
  6
Continuous
 62
     7
370
    25
100
AcDbPolyline
 90
        9
 70
   128
 43
0.0
 10
289.7274003219
 20
180.7640534352
 10
289.7079328862
 20
180.7445860758
 10
289.6798628238
 20
180.7165159834
 10
289.6439398494
 20
180.680592999
 10
289.601123691
 20
180.6377767497
 10
289.5525577799
 20
180.5892109913
 10
289.499539914
 20
180.5361930964
 10
289.4434861694
 20
180.4801393226
 10
289.3858938799
 20
180.4225470913
  0
LINE
  5
3BA
330
1F
100
AcDbEntity
  8
0
  6
Continuous
 62
     7
370
    25
100
AcDbLine
 10
289.7274003219
 20
180.7640534352
 30
0.0
 11
295.1155540389
 21
175.3758999329
 31
0.0
  0
LWPOLYLINE
  5
3BB
330
1F
100
AcDbEntity
  8
0
  6
Continuous
 62
     7
370
    25
100
AcDbPolyline
 90
        9
 70
   128
 43
0.0
 10
294.7740475968
 20
175.034393258
 10
294.8316398863
 20
175.0919857803
 10
294.887693631
 20
175.1480392921
 10
294.9407114968
 20
175.201057158
 10
294.989277408
 20
175.249623302
 10
295.0320935663
 20
175.2924394604
 10
295.0680165407
 20
175.3283624347
 10
295.0960866031
 20
175.3564324971
 10
295.1155540389
 20
175.3758999329
  0
ARC
  5
3BC
330
1F
100
AcDbEntity
  8
0
  6
Continuous
 62
     7
370
    25
100
AcDbCircle
 10
289.6607205656
 20
178.0032968386
 30
0.0
 40
1.449999999999984
100
AcDbArc
 50
305.5988762006
 51
144.4011237994
  0
LINE
  5
3BD
330
1F
100
AcDbEntity
  8
0
  6
Continuous
 62
     7
370
    25
100
AcDbLine
 10
288.1462034159
 20
179.1828565109
 30
0.0
 11
289.3858938799
 21
180.4225470913
 31
0.0
  0
ARC
  5
3BE
330
1F
100
AcDbEntity
  8
0
  6
Continuous
 62
     7
370
    25
100
AcDbCircle
 10
292.3547974019
 20
175.3092200023
 30
0.0
 40
1.450000000000023
100
AcDbArc
 50
305.5988762006
 51
144.4011237994
  0
LINE
  5
3BF
330
1F
100
AcDbEntity
  8
0
  6
Continuous
 62
     7
370
    25
100
AcDbLine
 10
295.6895323326
 20
175.9498782266
 30
0.0
 11
290.3013786156
 21
181.3380317107
 31
0.0
  0
LINE
  5
3C0
330
1F
100
AcDbEntity
  8
0
  6
Continuous
 62
     7
370
    25
100
AcDbLine
 10
289.7274003219
 20
180.7640534352
 30
0.0
 11
290.3013786156
 21
181.3380317107
 31
0.0
  0
LINE
  5
3C1
330
1F
100
AcDbEntity
  8
0
  6
Continuous
 62
     7
370
    25
100
AcDbLine
 10
292.3698399275
 20
174.9592201594
 30
0.0
 11
293.7103415928
 21
174.9592201594
 31
0.0
  0
ARC
  5
3C2
330
1F
100
AcDbEntity
  8
0
  6
Continuous
 62
     7
370
    25
100
AcDbCircle
 10
292.3547974019
 20
175.3092200023
 30
0.0
 40
1.400000000000021
100
AcDbArc
 50
305.2599078743
 51
345.5224878141
  0
LINE
  5
3C3
330
1F
100
AcDbEntity
  8
0
  6
Continuous
 62
     7
370
    25
100
AcDbLine
 10
291.6698399088
 20
175.6592199016
 30
0.0
 11
293.7103415928
 21
175.6592199016
 31
0.0
  0
ARC
  5
3C4
330
1F
100
AcDbEntity
  8
0
  6
Continuous
 62
     7
370
    25
100
AcDbCircle
 10
292.3547974019
 20
175.3092200023
 30
0.0
 40
1.399999999999992
100
AcDbArc
 50
14.4775121859
 51
144.7400921257
  0
LINE
  5
3C5
330
1F
100
AcDbEntity
  8
0
  6
Continuous
 62
     7
370
    25
100
AcDbLine
 10
289.6757631418
 20
177.653296785
 30
0.0
 11
291.0162647343
 21
177.653296785
 31
0.0
  0
ARC
  5
3C6
330
1F
100
AcDbEntity
  8
0
  6
Continuous
 62
     7
370
    25
100
AcDbCircle
 10
289.6607205656
 20
178.0032968386
 30
0.0
 40
1.399999999999989
100
AcDbArc
 50
305.2599078743
 51
345.5224878141
  0
LINE
  5
3C7
330
1F
100
AcDbEntity
  8
0
  6
Continuous
 62
     7
370
    25
100
AcDbLine
 10
291.0162647343
 20
178.3532967601
 30
0.0
 11
288.9757631668
 21
178.3532967601
 31
0.0
  0
ARC
  5
3C8
330
1F
100
AcDbEntity
  8
0
  6
Continuous
 62
     7
370
    25
100
AcDbCircle
 10
289.6607205656
 20
178.0032968386
 30
0.0
 40
1.400000000000005
100
AcDbArc
 50
14.4775121859
 51
144.7400921257
  0
ARC
  5
3C9
330
1F
100
AcDbEntity
  8
0
  6
Continuous
 62
     7
370
    25
100
AcDbCircle
 10
292.3547974019
 20
175.3092200023
 30
0.0
 40
1.400000000000006
100
AcDbArc
 50
345.5224878141
 51
14.4775121859
  0
ARC
  5
3CA
330
1F
100
AcDbEntity
  8
0
  6
Continuous
 62
     7
370
    25
100
AcDbCircle
 10
289.6607205656
 20
178.0032968386
 30
0.0
 40
1.399999999999999
100
AcDbArc
 50
345.5224878141
 51
14.4775121859
  0
LINE
  5
3CB
330
1F
100
AcDbEntity
  8
0
  6
Continuous
 62
     7
370
    25
100
AcDbLine
 10
290.6117792329
 20
181.6484322698
 30
0.0
 11
295.9999328334
 21
176.2602787275
 31
0.0
  0
LINE
  5
3CC
330
1F
100
AcDbEntity
  8
0
  6
Continuous
 62
     7
370
    25
100
AcDbLine
 10
290.6117792329
 20
181.6484322698
 30
0.0
 11
290.3013786156
 21
181.3380317107
 31
0.0
  0
LINE
  5
3CD
330
1F
100
AcDbEntity
  8
0
  6
Continuous
 62
     7
370
    25
100
AcDbLine
 10
290.8239112324
 20
181.8605643274
 30
0.0
 11
296.2120650657
 21
176.4724107269
 31
0.0
  0
LWPOLYLINE
  5
3CE
330
1F
100
AcDbEntity
  8
0
  6
Continuous
 62
     7
370
    25
100
AcDbPolyline
 90
        9
 70
   128
 43
0.0
 10
290.6117792329
 20
181.6484322698
 10
290.6531640649
 20
181.6898172182
 10
290.6929585472
 20
181.7296117587
 10
290.7296334481
 20
181.7662865432
 10
290.761779211
 20
181.798432306
 10
290.7881605527
 20
181.8248136477
 10
290.8077636123
 20
181.8444167074
 10
290.8198351827
 20
181.8564882777
 10
290.8239112324
 20
181.8605643274
  0
LWPOLYLINE
  5
3CF
330
1F
100
AcDbEntity
  8
0
  6
Continuous
 62
     7
370
    25
100
AcDbPolyline
 90
        9
 70
   128
 43
0.0
 10
295.9999328334
 20
176.2602787275
 10
296.0413177819
 20
176.301663443
 10
296.0811122642
 20
176.3414579253
 10
296.1177870487
 20
176.3781329427
 10
296.1499328115
 20
176.4102784726
 10
296.176314386
 20
176.4366600472
 10
296.1959173293
 20
176.4562629904
 10
296.2079886668
 20
176.4683347936
 10
296.2120650657
 20
176.4724107269
  0
LINE
  5
3D0
330
1F
100
AcDbEntity
  8
0
  6
Continuous
 62
     7
370
    25
100
AcDbLine
 10
263.099173116
 20
167.8651638139
 30
0.0
 11
263.099173116
 21
168.4780616123
 31
0.0
  0
LINE
  5
3D1
330
1F
100
AcDbEntity
  8
0
  6
Continuous
 62
     7
370
    25
100
AcDbLine
 10
263.099173116
 20
172.9780614186
 30
0.0
 11
263.099173116
 21
173.5909587513
 31
0.0
  0
LINE
  5
3D2
330
1F
100
AcDbEntity
  8
0
  6
Continuous
 62
     7
370
    25
100
AcDbLine
 10
263.099173116
 20
187.8651638325
 30
0.0
 11
263.099173116
 21
188.4780611653
 31
0.0
  0
LINE
  5
3D3
330
1F
100
AcDbEntity
  8
0
  6
Continuous
 62
     7
370
    25
100
AcDbLine
 10
263.099173116
 20
192.9780609715
 30
0.0
 11
263.099173116
 21
193.59095877
 31
0.0
  0
ARC
  5
3D4
330
1F
100
AcDbEntity
  8
0
  6
Continuous
 62
     7
370
    25
100
AcDbCircle
 10
312.834660217
 20
162.2725743029
 30
0.0
 40
1.591272467535896
100
AcDbArc
 50
315.0
 51
135.0
  0
LINE
  5
3D5
330
1F
100
AcDbEntity
  8
0
  6
Continuous
 62
     7
370
    25
100
AcDbLine
 10
311.7094599032
 20
163.3977742675
 30
0.0
 11
309.5881399088
 21
161.2764542732
 31
0.0
  0
ARC
  5
3D6
330
1F
100
AcDbEntity
  8
0
  6
Continuous
 62
     7
370
    25
100
AcDbCircle
 10
310.7133398734
 20
160.1512539594
 30
0.0
 40
1.591272467535936
100
AcDbArc
 50
135.0
 51
315.0
  0
LINE
  5
3D7
330
1F
100
AcDbEntity
  8
0
  6
Continuous
 62
     7
370
    25
100
AcDbLine
 10
311.8385393493
 20
159.0260548327
 30
0.0
 11
313.9598593437
 21
161.147374827
 31
0.0
  0
LINE
  5
3D8
330
1F
100
AcDbEntity
  8
0
  6
Continuous
 62
     7
370
    25
100
AcDbLine
 10
313.2589236223
 20
157.6056686971
 30
0.0
 11
315.3802454793
 21
159.7269905541
 31
0.0
  0
ARC
  5
3D9
330
1F
100
AcDbEntity
  8
0
  6
Continuous
 62
     7
370
    25
100
AcDbCircle
 10
310.7133398734
 20
160.1512539594
 30
0.0
 40
3.600000000000053
100
AcDbArc
 50
135.0
 51
315.0
  0
LINE
  5
3DA
330
1F
100
AcDbEntity
  8
0
  6
Continuous
 62
     7
370
    25
100
AcDbLine
 10
310.2890756302
 20
164.8181585405
 30
0.0
 11
308.1677556359
 21
162.6968385461
 31
0.0
  0
ARC
  5
3DB
330
1F
100
AcDbEntity
  8
0
  6
Continuous
 62
     7
370
    25
100
AcDbCircle
 10
312.834660217
 20
162.2725743029
 30
0.0
 40
3.600000000000033
100
AcDbArc
 50
315.0
 51
135.0
  0
LWPOLYLINE
  5
3DC
330
1F
100
AcDbEntity
  8
0
  6
Continuous
 62
     7
370
    25
100
AcDbPolyline
 90
        9
 70
   128
 43
0.0
 10
313.2589236223
 20
157.6056686971
 10
313.3278992348
 20
157.5366949472
 10
313.3942224406
 20
157.4703698788
 10
313.4553488665
 20
157.4092453155
 10
313.5089241289
 20
157.3556700531
 10
313.5528937303
 20
157.3117004517
 10
313.5855645262
 20
157.2790296558
 10
313.6056848191
 20
157.2589093629
 10
313.612477886
 20
157.252116296
  0
LWPOLYLINE
  5
3DD
330
1F
100
AcDbEntity
  8
0
  6
Continuous
 62
     7
370
    25
100
AcDbPolyline
 90
        9
 70
   128
 43
0.0
 10
315.7337978803
 20
159.3734362904
 10
315.7270048135
 20
159.3802293572
 10
315.7068845206
 20
159.4003496501
 10
315.6742137246
 20
159.433020446
 10
315.6302441232
 20
159.4769900474
 10
315.5766688608
 20
159.5305653099
 10
315.5155442976
 20
159.5916917357
 10
315.4492192291
 20
159.6580149416
 10
315.3802454793
 20
159.7269905541
  0
LINE
  5
3DE
330
1F
100
AcDbEntity
  8
0
  6
Continuous
 62
     7
370
    25
100
AcDbLine
 10
313.612477886
 20
157.252116296
 30
0.0
 11
315.7337978803
 21
159.3734362904
 31
0.0
  0
LWPOLYLINE
  5
3DF
330
1F
100
AcDbEntity
  8
0
  6
Continuous
 62
     7
370
    25
100
AcDbPolyline
 90
        9
 70
   128
 43
0.0
 10
309.9355232292
 20
165.1717118729
 10
309.942316296
 20
165.164918806
 10
309.9624347263
 20
165.1447994444
 10
309.9951073848
 20
165.1121277172
 10
310.0390751236
 20
165.0681590471
 10
310.0926522487
 20
165.014581922
 10
310.1537768119
 20
164.9534573588
 10
310.2201018803
 20
164.887134153
 10
310.2890756302
 20
164.8181585405
  0
ARC
  5
3E0
330
1F
100
AcDbEntity
  8
0
  6
Continuous
 62
     7
370
    25
100
AcDbCircle
 10
312.834660217
 20
162.2725743029
 30
0.0
 40
4.100000000000037
100
AcDbArc
 50
315.0
 51
135.0
  0
LWPOLYLINE
  5
3E1
330
1F
100
AcDbEntity
  8
0
  6
Continuous
 62
     7
370
    25
100
AcDbPolyline
 90
        9
 70
   128
 43
0.0
 10
308.1677556359
 20
162.6968385461
 10
308.0987800234
 20
162.765812296
 10
308.0324568175
 20
162.8321373645
 10
307.9713322543
 20
162.8932619277
 10
307.9177551292
 20
162.9468390528
 10
307.8737864592
 20
162.9908067915
 10
307.8411147319
 20
163.0234794501
 10
307.8209953704
 20
163.0435978803
 10
307.8142023035
 20
163.0503909472
  0
ARC
  5
3E2
330
1F
100
AcDbEntity
  8
0
  6
Continuous
 62
     7
370
    25
100
AcDbCircle
 10
310.7133398734
 20
160.1512539594
 30
0.0
 40
4.100000000000057
100
AcDbArc
 50
135.0
 51
315.0
  0
LINE
  5
3E3
330
1F
100
AcDbEntity
  8
0
  6
Continuous
 62
     7
370
    25
100
AcDbLine
 10
309.9355232292
 20
165.1717118729
 30
0.0
 11
307.8142023035
 21
163.0503909472
 31
0.0
  0
ARC
  5
3E4
330
1F
100
AcDbEntity
  8
0
  6
Continuous
 62
     7
370
    25
100
AcDbCircle
 10
271.6810455519
 20
199.1835482809
 30
0.0
 40
1.591272467535916
100
AcDbArc
 50
135.0
 51
315.0
  0
LINE
  5
3E5
330
1F
100
AcDbEntity
  8
0
  6
Continuous
 62
     7
370
    25
100
AcDbLine
 10
272.8062458657
 20
198.0583483163
 30
0.0
 11
274.9275658601
 21
200.1796683106
 31
0.0
  0
ARC
  5
3E6
330
1F
100
AcDbEntity
  8
0
  6
Continuous
 62
     7
370
    25
100
AcDbCircle
 10
273.8023658955
 20
201.3048686244
 30
0.0
 40
1.591272467535896
100
AcDbArc
 50
315.0
 51
135.0
  0
LINE
  5
3E7
330
1F
100
AcDbEntity
  8
0
  6
Continuous
 62
     7
370
    25
100
AcDbLine
 10
272.6771664195
 20
202.4300677512
 30
0.0
 11
270.5558464252
 21
200.3087477568
 31
0.0
  0
LINE
  5
3E8
330
1F
100
AcDbEntity
  8
0
  6
Continuous
 62
     7
370
    25
100
AcDbLine
 10
271.2567821466
 20
203.8504538867
 30
0.0
 11
269.1354602896
 21
201.7291320298
 31
0.0
  0
ARC
  5
3E9
330
1F
100
AcDbEntity
  8
0
  6
Continuous
 62
     7
370
    25
100
AcDbCircle
 10
273.8023658955
 20
201.3048686244
 30
0.0
 40
3.599999999999973
100
AcDbArc
 50
315.0
 51
135.0
  0
LINE
  5
3EA
330
1F
100
AcDbEntity
  8
0
  6
Continuous
 62
     7
370
    25
100
AcDbLine
 10
274.2266301387
 20
196.6379640434
 30
0.0
 11
276.347950133
 21
198.7592840377
 31
0.0
  0
ARC
  5
3EB
330
1F
100
AcDbEntity
  8
0
  6
Continuous
 62
     7
370
    25
100
AcDbCircle
 10
271.6810455519
 20
199.1835482809
 30
0.0
 40
3.599999999999993
100
AcDbArc
 50
135.0
 51
315.0
  0
LWPOLYLINE
  5
3EC
330
1F
100
AcDbEntity
  8
0
  6
Continuous
 62
     7
370
    25
100
AcDbPolyline
 90
        9
 70
   128
 43
0.0
 10
276.7015034654
 20
198.4057316366
 10
276.6947103985
 20
198.4125247035
 10
276.6745910369
 20
198.4326431337
 10
276.6419193097
 20
198.4653157923
 10
276.5979506396
 20
198.5092835311
 10
276.5443735146
 20
198.5628606561
 10
276.4832489513
 20
198.6239852193
 10
276.4169257455
 20
198.6903102878
 10
276.347950133
 20
198.7592840377
  0
LWPOLYLINE
  5
3ED
330
1F
100
AcDbEntity
  8
0
  6
Continuous
 62
     7
370
    25
100
AcDbPolyline
 90
        9
 70
   128
 43
0.0
 10
271.2567821466
 20
203.8504538867
 10
271.1878065341
 20
203.9194276366
 10
271.1214833283
 20
203.9857527051
 10
271.0603569024
 20
204.0468772683
 10
271.00678164
 20
204.1004525307
 10
270.9628120386
 20
204.1444221321
 10
270.9301412427
 20
204.177092928
 10
270.9100209498
 20
204.1972132209
 10
270.9032278829
 20
204.2040062878
  0
ARC
  5
3EE
330
1F
100
AcDbEntity
  8
0
  6
Continuous
 62
     7
370
    25
100
AcDbCircle
 10
273.8023658955
 20
201.3048686244
 30
0.0
 40
4.099999999999997
100
AcDbArc
 50
315.0
 51
135.0
  0
LINE
  5
3EF
330
1F
100
AcDbEntity
  8
0
  6
Continuous
 62
     7
370
    25
100
AcDbLine
 10
274.5801825397
 20
196.284410711
 30
0.0
 11
276.7015034654
 21
198.4057316366
 31
0.0
  0
LWPOLYLINE
  5
3F0
330
1F
100
AcDbEntity
  8
0
  6
Continuous
 62
     7
370
    25
100
AcDbPolyline
 90
        9
 70
   128
 43
0.0
 10
274.5801825397
 20
196.284410711
 10
274.5733894729
 20
196.2912037778
 10
274.5532710426
 20
196.3113231394
 10
274.5205983841
 20
196.3439948667
 10
274.4766306453
 20
196.3879635367
 10
274.4230535202
 20
196.4415406618
 10
274.361928957
 20
196.502665225
 10
274.2956038885
 20
196.5689884308
 10
274.2266301387
 20
196.6379640434
  0
LWPOLYLINE
  5
3F1
330
1F
100
AcDbEntity
  8
0
  6
Continuous
 62
     7
370
    25
100
AcDbPolyline
 90
        9
 70
   128
 43
0.0
 10
269.1354602896
 20
201.7291320298
 10
269.0664865398
 20
201.7981076423
 10
269.0001614713
 20
201.8644308481
 10
268.9390369081
 20
201.925557274
 10
268.8854616456
 20
201.9791325364
 10
268.8414920442
 20
202.0231021378
 10
268.8088212483
 20
202.0557729337
 10
268.7887009554
 20
202.0758932266
 10
268.7819078886
 20
202.0826862935
  0
ARC
  5
3F2
330
1F
100
AcDbEntity
  8
0
  6
Continuous
 62
     7
370
    25
100
AcDbCircle
 10
271.6810455519
 20
199.1835482809
 30
0.0
 40
4.100000000000037
100
AcDbArc
 50
135.0
 51
315.0
  0
LINE
  5
3F3
330
1F
100
AcDbEntity
  8
0
  6
Continuous
 62
     7
370
    25
100
AcDbLine
 10
270.9032278829
 20
204.2040062878
 30
0.0
 11
268.7819078886
 21
202.0826862935
 31
0.0
  0
ARC
  5
3F4
330
1F
100
AcDbEntity
  8
0
  6
Continuous
 62
     7
370
    25
100
AcDbCircle
 10
312.2578528844
 20
160.7280612919
 30
0.0
 40
8.591196303513925
100
AcDbArc
 50
270.0
 51
0.0
  0
LINE
  5
3F5
330
1F
100
AcDbEntity
  8
0
  6
Continuous
 62
     7
370
    25
100
AcDbLine
 10
320.8490498685
 20
160.728061739
 30
0.0
 11
321.3489726507
 21
160.728061739
 31
0.0
  0
ARC
  5
3F6
330
1F
100
AcDbEntity
  8
0
  6
Continuous
 62
     7
370
    25
100
AcDbCircle
 10
312.2578528844
 20
160.7280612919
 30
0.0
 40
9.091120151092127
100
AcDbArc
 50
270.0
 51
0.0
  0
LINE
  5
3F7
330
1F
100
AcDbEntity
  8
0
  6
Continuous
 62
     7
370
    25
100
AcDbLine
 10
312.2578524374
 20
151.6369415257
 30
0.0
 11
312.2578524374
 21
152.1368643079
 31
0.0
  0
LINE
  5
3F8
330
1F
100
AcDbEntity
  8
0
  6
Continuous
 62
     7
370
    25
100
AcDbLine
 10
283.4190177121
 20
183.9100417491
 30
0.0
 11
295.4398333416
 21
171.8892261196
 31
0.0
  0
ARC
  5
3F9
330
1F
100
AcDbEntity
  8
0
  6
Continuous
 62
     7
370
    25
100
AcDbCircle
 10
302.5109012116
 20
178.960294339
 30
0.0
 40
10.00000000000004
100
AcDbArc
 50
225.0
 51
45.0
  0
LINE
  5
3FA
330
1F
100
AcDbEntity
  8
0
  6
Continuous
 62
     7
370
    25
100
AcDbLine
 10
309.5819689654
 20
186.0313622091
 30
0.0
 11
297.5611538016
 21
198.0521773729
 31
0.0
  0
ARC
  5
3FB
330
1F
100
AcDbEntity
  8
0
  6
Continuous
 62
     7
370
    25
100
AcDbCircle
 10
290.4900859315
 20
190.9811096191
 30
0.0
 40
10.0
100
AcDbArc
 50
45.0
 51
225.0
  0
CIRCLE
  5
3FC
330
1F
100
AcDbEntity
  8
0
  6
Continuous
 62
     7
370
    25
100
AcDbCircle
 10
274.2578528844
 20
162.7280612919
 30
0.0
 40
7.749999999999972
  0
CIRCLE
  5
3FD
330
1F
100
AcDbEntity
  8
0
  6
Continuous
 62
     7
370
    25
100
AcDbCircle
 10
310.2578528844
 20
198.7280612919
 30
0.0
 40
7.75
  0
LINE
  5
3FE
330
1F
100
AcDbEntity
  8
0
  6
Continuous
 62
     7
370
    25
100
AcDbLine
 10
320.8490498685
 20
168.2280611057
 30
0.0
 11
320.4489723169
 21
168.2280611057
 31
0.0
  0
LINE
  5
3FF
330
1F
100
AcDbEntity
  8
0
  6
Continuous
 62
     7
370
    25
100
AcDbLine
 10
320.8490498685
 20
160.728061739
 30
0.0
 11
320.8490498685
 21
168.2280611057
 31
0.0
  0
LINE
  5
400
330
1F
100
AcDbEntity
  8
0
  6
Continuous
 62
     7
370
    25
100
AcDbLine
 10
272.2578533315
 20
152.1368643079
 30
0.0
 11
312.2578524374
 21
152.1368643079
 31
0.0
  0
ARC
  5
401
330
1F
100
AcDbEntity
  8
0
  6
Continuous
 62
     7
370
    25
100
AcDbCircle
 10
272.2578528844
 20
160.7280612919
 30
0.0
 40
8.591196303513925
100
AcDbArc
 50
180.0
 51
270.0
  0
LINE
  5
402
330
1F
100
AcDbEntity
  8
0
  6
Continuous
 62
     7
370
    25
100
AcDbLine
 10
263.6666559004
 20
168.2280611057
 30
0.0
 11
263.6666559004
 21
160.728061739
 31
0.0
  0
LINE
  5
403
330
1F
100
AcDbEntity
  8
0
  6
Continuous
 62
     7
370
    25
100
AcDbLine
 10
264.066733452
 20
168.2280611057
 30
0.0
 11
263.6666559004
 21
168.2280611057
 31
0.0
  0
LINE
  5
404
330
1F
100
AcDbEntity
  8
0
  6
Continuous
 62
     7
370
    25
100
AcDbLine
 10
264.066733452
 20
173.2280614596
 30
0.0
 11
264.066733452
 21
168.2280611057
 31
0.0
  0
LINE
  5
405
330
1F
100
AcDbEntity
  8
0
  6
Continuous
 62
     7
370
    25
100
AcDbLine
 10
263.6666559004
 20
173.2280614596
 30
0.0
 11
264.066733452
 21
173.2280614596
 31
0.0
  0
LINE
  5
406
330
1F
100
AcDbEntity
  8
0
  6
Continuous
 62
     7
370
    25
100
AcDbLine
 10
263.6666559004
 20
188.2280611243
 30
0.0
 11
263.6666559004
 21
173.2280614596
 31
0.0
  0
LINE
  5
407
330
1F
100
AcDbEntity
  8
0
  6
Continuous
 62
     7
370
    25
100
AcDbLine
 10
264.066733452
 20
188.2280611243
 30
0.0
 11
263.6666559004
 21
188.2280611243
 31
0.0
  0
LINE
  5
408
330
1F
100
AcDbEntity
  8
0
  6
Continuous
 62
     7
370
    25
100
AcDbLine
 10
264.066733452
 20
193.2280614782
 30
0.0
 11
264.066733452
 21
188.2280611243
 31
0.0
  0
LINE
  5
409
330
1F
100
AcDbEntity
  8
0
  6
Continuous
 62
     7
370
    25
100
AcDbLine
 10
263.6666559004
 20
193.2280614782
 30
0.0
 11
264.066733452
 21
193.2280614782
 31
0.0
  0
LINE
  5
40A
330
1F
100
AcDbEntity
  8
0
  6
Continuous
 62
     7
370
    25
100
AcDbLine
 10
263.6666559004
 20
200.7280608449
 30
0.0
 11
263.6666559004
 21
193.2280614782
 31
0.0
  0
ARC
  5
40B
330
1F
100
AcDbEntity
  8
0
  6
Continuous
 62
     7
370
    25
100
AcDbCircle
 10
272.2578528844
 20
200.7280612919
 30
0.0
 40
8.591196303513982
100
AcDbArc
 50
90.0
 51
180.0
  0
LINE
  5
40C
330
1F
100
AcDbEntity
  8
0
  6
Continuous
 62
     7
370
    25
100
AcDbLine
 10
312.2578524374
 20
209.319258276
 30
0.0
 11
272.2578533315
 21
209.319258276
 31
0.0
  0
ARC
  5
40D
330
1F
100
AcDbEntity
  8
0
  6
Continuous
 62
     7
370
    25
100
AcDbCircle
 10
312.2578528844
 20
200.7280612919
 30
0.0
 40
8.591196303513954
100
AcDbArc
 50
0.0
 51
90.0
  0
LINE
  5
40E
330
1F
100
AcDbEntity
  8
0
  6
Continuous
 62
     7
370
    25
100
AcDbLine
 10
320.8490498685
 20
193.2280614782
 30
0.0
 11
320.8490498685
 21
200.7280608449
 31
0.0
  0
LINE
  5
40F
330
1F
100
AcDbEntity
  8
0
  6
Continuous
 62
     7
370
    25
100
AcDbLine
 10
320.4489723169
 20
193.2280614782
 30
0.0
 11
320.8490498685
 21
193.2280614782
 31
0.0
  0
LINE
  5
410
330
1F
100
AcDbEntity
  8
0
  6
Continuous
 62
     7
370
    25
100
AcDbLine
 10
320.4489723169
 20
188.2280611243
 30
0.0
 11
320.4489723169
 21
193.2280614782
 31
0.0
  0
LINE
  5
411
330
1F
100
AcDbEntity
  8
0
  6
Continuous
 62
     7
370
    25
100
AcDbLine
 10
320.8490498685
 20
188.2280611243
 30
0.0
 11
320.4489723169
 21
188.2280611243
 31
0.0
  0
LINE
  5
412
330
1F
100
AcDbEntity
  8
0
  6
Continuous
 62
     7
370
    25
100
AcDbLine
 10
320.8490498685
 20
173.2280614596
 30
0.0
 11
320.8490498685
 21
188.2280611243
 31
0.0
  0
LINE
  5
413
330
1F
100
AcDbEntity
  8
0
  6
Continuous
 62
     7
370
    25
100
AcDbLine
 10
320.4489723169
 20
173.2280614596
 30
0.0
 11
320.8490498685
 21
173.2280614596
 31
0.0
  0
LINE
  5
414
330
1F
100
AcDbEntity
  8
0
  6
Continuous
 62
     7
370
    25
100
AcDbLine
 10
320.4489723169
 20
168.2280611057
 30
0.0
 11
320.4489723169
 21
173.2280614596
 31
0.0
  0
ELLIPSE
  5
415
330
1F
100
AcDbEntity
  8
0
  6
Continuous
 62
     7
370
    25
100
AcDbEllipse
 10
320.849049188
 20
168.2367888244
 30
0.0
 11
0.5
 21
0.0
 31
0.0
210
0.0
220
0.0
230
1.0
 40
0.0174550649
 41
4.71238898038469
 42
6.300638599698066
  0
LINE
  5
416
330
1F
100
AcDbEntity
  8
0
  6
Continuous
 62
     7
370
    25
100
AcDbLine
 10
321.3489726507
 20
168.2369412664
 30
0.0
 11
321.3489726507
 21
160.728061739
 31
0.0
  0
LINE
  5
417
330
1F
100
AcDbEntity
  8
0
  6
Continuous
 62
     7
370
    25
100
AcDbLine
 10
321.3142156922
 20
168.2716991562
 30
0.0
 11
320.4926103674
 21
168.2716991562
 31
0.0
  0
LINE
  5
418
330
1F
100
AcDbEntity
  8
0
  6
Continuous
 62
     7
370
    25
100
AcDbLine
 10
321.3142156922
 20
168.2716991562
 30
0.0
 11
321.3489726507
 21
168.2369412664
 31
0.0
  0
LINE
  5
419
330
1F
100
AcDbEntity
  8
0
  6
Continuous
 62
     7
370
    25
100
AcDbLine
 10
320.4926103674
 20
168.2716991562
 30
0.0
 11
320.4489723169
 21
168.2280611057
 31
0.0
  0
LINE
  5
41A
330
1F
100
AcDbEntity
  8
0
  6
Continuous
 62
     7
370
    25
100
AcDbLine
 10
320.4926103674
 20
173.184423409
 30
0.0
 11
320.4489723169
 21
173.2280614596
 31
0.0
  0
LINE
  5
41B
330
1F
100
AcDbEntity
  8
0
  6
Continuous
 62
     7
370
    25
100
AcDbLine
 10
320.4926103674
 20
168.2716991562
 30
0.0
 11
320.4926103674
 21
173.184423409
 31
0.0
  0
LINE
  5
41C
330
1F
100
AcDbEntity
  8
0
  6
Continuous
 62
     7
370
    25
100
AcDbLine
 10
312.2578524374
 20
151.6369415257
 30
0.0
 11
272.2578533315
 21
151.6369415257
 31
0.0
  0
LINE
  5
41D
330
1F
100
AcDbEntity
  8
0
  6
Continuous
 62
     7
370
    25
100
AcDbLine
 10
272.2578533315
 20
151.6369415257
 30
0.0
 11
272.2578533315
 21
152.1368643079
 31
0.0
  0
LINE
  5
41E
330
1F
100
AcDbEntity
  8
0
  6
Continuous
 62
     7
370
    25
100
AcDbLine
 10
321.3489726507
 20
173.2191812988
 30
0.0
 11
321.3142156922
 21
173.184423409
 31
0.0
  0
LINE
  5
41F
330
1F
100
AcDbEntity
  8
0
  6
Continuous
 62
     7
370
    25
100
AcDbLine
 10
320.4926103674
 20
173.184423409
 30
0.0
 11
321.3142156922
 21
173.184423409
 31
0.0
  0
ELLIPSE
  5
420
330
1F
100
AcDbEntity
  8
0
  6
Continuous
 62
     7
370
    25
100
AcDbEllipse
 10
320.849049188
 20
173.2193337595
 30
0.0
 11
0.5
 21
0.0
 31
0.0
210
0.0
220
0.0
230
1.0
 40
0.0174550649
 41
6.265732014658636
 42
7.853981633974483
  0
ELLIPSE
  5
421
330
1F
100
AcDbEntity
  8
0
  6
Continuous
 62
     7
370
    25
100
AcDbEllipse
 10
320.849049188
 20
188.2367888244
 30
0.0
 11
0.5
 21
0.0
 31
0.0
210
0.0
220
0.0
230
1.0
 40
0.0174550649
 41
4.71238898038469
 42
6.300638599698066
  0
LINE
  5
422
330
1F
100
AcDbEntity
  8
0
  6
Continuous
 62
     7
370
    25
100
AcDbLine
 10
321.3489726507
 20
188.236941285
 30
0.0
 11
321.3489726507
 21
173.2191812988
 31
0.0
  0
LINE
  5
423
330
1F
100
AcDbEntity
  8
0
  6
Continuous
 62
     7
370
    25
100
AcDbLine
 10
321.3142156922
 20
188.2716991748
 30
0.0
 11
321.3489726507
 21
188.236941285
 31
0.0
  0
LINE
  5
424
330
1F
100
AcDbEntity
  8
0
  6
Continuous
 62
     7
370
    25
100
AcDbLine
 10
320.4926103674
 20
188.2716991748
 30
0.0
 11
320.4489723169
 21
188.2280611243
 31
0.0
  0
LINE
  5
425
330
1F
100
AcDbEntity
  8
0
  6
Continuous
 62
     7
370
    25
100
AcDbLine
 10
321.3142156922
 20
188.2716991748
 30
0.0
 11
320.4926103674
 21
188.2716991748
 31
0.0
  0
LINE
  5
426
330
1F
100
AcDbEntity
  8
0
  6
Continuous
 62
     7
370
    25
100
AcDbLine
 10
320.4926103674
 20
188.2716991748
 30
0.0
 11
320.4926103674
 21
193.1844234276
 31
0.0
  0
LINE
  5
427
330
1F
100
AcDbEntity
  8
0
  6
Continuous
 62
     7
370
    25
100
AcDbLine
 10
320.4926103674
 20
193.1844234276
 30
0.0
 11
320.4489723169
 21
193.2280614782
 31
0.0
  0
ELLIPSE
  5
428
330
1F
100
AcDbEntity
  8
0
  6
Continuous
 62
     7
370
    25
100
AcDbEllipse
 10
320.849049188
 20
193.2193337595
 30
0.0
 11
0.5
 21
0.0
 31
0.0
210
0.0
220
0.0
230
1.0
 40
0.0174550649
 41
6.26573201466509
 42
7.853981633974483
  0
LINE
  5
429
330
1F
100
AcDbEntity
  8
0
  6
Continuous
 62
     7
370
    25
100
AcDbLine
 10
321.3489726507
 20
193.2191813174
 30
0.0
 11
321.3142156922
 21
193.1844234276
 31
0.0
  0
LINE
  5
42A
330
1F
100
AcDbEntity
  8
0
  6
Continuous
 62
     7
370
    25
100
AcDbLine
 10
320.4926103674
 20
193.1844234276
 30
0.0
 11
321.3142156922
 21
193.1844234276
 31
0.0
  0
LINE
  5
42B
330
1F
100
AcDbEntity
  8
0
  6
Continuous
 62
     7
370
    25
100
AcDbLine
 10
320.8490498685
 20
200.7280608449
 30
0.0
 11
321.3489726507
 21
200.7280608449
 31
0.0
  0
LINE
  5
42C
330
1F
100
AcDbEntity
  8
0
  6
Continuous
 62
     7
370
    25
100
AcDbLine
 10
321.3489726507
 20
200.7280608449
 30
0.0
 11
321.3489726507
 21
193.2191813174
 31
0.0
  0
LINE
  5
42D
330
1F
100
AcDbEntity
  8
0
  6
Continuous
 62
     7
370
    25
100
AcDbLine
 10
312.2578524374
 20
209.319258276
 30
0.0
 11
312.2578524374
 21
209.8191810582
 31
0.0
  0
ARC
  5
42E
330
1F
100
AcDbEntity
  8
0
  6
Continuous
 62
     7
370
    25
100
AcDbCircle
 10
312.2578528844
 20
200.7280612919
 30
0.0
 40
9.091120151092127
100
AcDbArc
 50
0.0
 51
90.0
  0
LINE
  5
42F
330
1F
100
AcDbEntity
  8
0
  6
Continuous
 62
     7
370
    25
100
AcDbLine
 10
272.2578533315
 20
209.319258276
 30
0.0
 11
272.2578533315
 21
209.8191810582
 31
0.0
  0
LINE
  5
430
330
1F
100
AcDbEntity
  8
0
  6
Continuous
 62
     7
370
    25
100
AcDbLine
 10
272.2578533315
 20
209.8191810582
 30
0.0
 11
312.2578524374
 21
209.8191810582
 31
0.0
  0
ARC
  5
431
330
1F
100
AcDbEntity
  8
0
  6
Continuous
 62
     7
370
    25
100
AcDbCircle
 10
272.2578528844
 20
160.7280612919
 30
0.0
 40
9.091120151092127
100
AcDbArc
 50
180.0
 51
270.0
  0
LINE
  5
432
330
1F
100
AcDbEntity
  8
0
  6
Continuous
 62
     7
370
    25
100
AcDbLine
 10
263.1667331182
 20
160.728061739
 30
0.0
 11
263.6666559004
 21
160.728061739
 31
0.0
  0
LINE
  5
433
330
1F
100
AcDbEntity
  8
0
  6
Continuous
 62
     7
370
    25
100
AcDbLine
 10
263.1667331182
 20
160.728061739
 30
0.0
 11
263.1667331182
 21
168.2369412664
 31
0.0
  0
ELLIPSE
  5
434
330
1F
100
AcDbEntity
  8
0
  6
Continuous
 62
     7
370
    25
100
AcDbEllipse
 10
263.6666565809
 20
168.2367888244
 30
0.0
 11
0.5
 21
0.0
 31
0.0
210
0.0
220
0.0
230
1.0
 40
0.0174550649
 41
3.124139361068036
 42
4.71238898038469
  0
LINE
  5
435
330
1F
100
AcDbEntity
  8
0
  6
Continuous
 62
     7
370
    25
100
AcDbLine
 10
264.0230954014
 20
168.2716991562
 30
0.0
 11
264.066733452
 21
168.2280611057
 31
0.0
  0
LINE
  5
436
330
1F
100
AcDbEntity
  8
0
  6
Continuous
 62
     7
370
    25
100
AcDbLine
 10
263.1667331182
 20
168.2369412664
 30
0.0
 11
263.2014900767
 21
168.2716991562
 31
0.0
  0
LINE
  5
437
330
1F
100
AcDbEntity
  8
0
  6
Continuous
 62
     7
370
    25
100
AcDbLine
 10
264.0230954014
 20
168.2716991562
 30
0.0
 11
263.2014900767
 21
168.2716991562
 31
0.0
  0
LINE
  5
438
330
1F
100
AcDbEntity
  8
0
  6
Continuous
 62
     7
370
    25
100
AcDbLine
 10
264.0230954014
 20
173.184423409
 30
0.0
 11
264.0230954014
 21
168.2716991562
 31
0.0
  0
LINE
  5
439
330
1F
100
AcDbEntity
  8
0
  6
Continuous
 62
     7
370
    25
100
AcDbLine
 10
264.0230954014
 20
173.184423409
 30
0.0
 11
264.066733452
 21
173.2280614596
 31
0.0
  0
LINE
  5
43A
330
1F
100
AcDbEntity
  8
0
  6
Continuous
 62
     7
370
    25
100
AcDbLine
 10
263.2014900767
 20
173.184423409
 30
0.0
 11
263.1667331182
 21
173.2191812988
 31
0.0
  0
ELLIPSE
  5
43B
330
1F
100
AcDbEntity
  8
0
  6
Continuous
 62
     7
370
    25
100
AcDbEllipse
 10
263.6666565809
 20
173.2193337595
 30
0.0
 11
0.5
 21
0.0
 31
0.0
210
0.0
220
0.0
230
1.0
 40
0.0174550649
 41
1.570796326794897
 42
3.159045946109151
  0
LINE
  5
43C
330
1F
100
AcDbEntity
  8
0
  6
Continuous
 62
     7
370
    25
100
AcDbLine
 10
263.2014900767
 20
173.184423409
 30
0.0
 11
264.0230954014
 21
173.184423409
 31
0.0
  0
LINE
  5
43D
330
1F
100
AcDbEntity
  8
0
  6
Continuous
 62
     7
370
    25
100
AcDbLine
 10
263.1667331182
 20
173.2191812988
 30
0.0
 11
263.1667331182
 21
188.236941285
 31
0.0
  0
ELLIPSE
  5
43E
330
1F
100
AcDbEntity
  8
0
  6
Continuous
 62
     7
370
    25
100
AcDbEllipse
 10
263.6666565809
 20
188.2367888244
 30
0.0
 11
0.5
 21
0.0
 31
0.0
210
0.0
220
0.0
230
1.0
 40
0.0174550649
 41
3.124139361071292
 42
4.71238898038469
  0
LINE
  5
43F
330
1F
100
AcDbEntity
  8
0
  6
Continuous
 62
     7
370
    25
100
AcDbLine
 10
263.1667331182
 20
200.7280608449
 30
0.0
 11
263.6666559004
 21
200.7280608449
 31
0.0
  0
ARC
  5
440
330
1F
100
AcDbEntity
  8
0
  6
Continuous
 62
     7
370
    25
100
AcDbCircle
 10
272.2578528844
 20
200.7280612919
 30
0.0
 40
9.091120151092156
100
AcDbArc
 50
90.0
 51
180.0
  0
LINE
  5
441
330
1F
100
AcDbEntity
  8
0
  6
Continuous
 62
     7
370
    25
100
AcDbLine
 10
263.1667331182
 20
188.236941285
 30
0.0
 11
263.2014900767
 21
188.2716991748
 31
0.0
  0
LINE
  5
442
330
1F
100
AcDbEntity
  8
0
  6
Continuous
 62
     7
370
    25
100
AcDbLine
 10
264.0230954014
 20
188.2716991748
 30
0.0
 11
263.2014900767
 21
188.2716991748
 31
0.0
  0
LINE
  5
443
330
1F
100
AcDbEntity
  8
0
  6
Continuous
 62
     7
370
    25
100
AcDbLine
 10
264.0230954014
 20
188.2716991748
 30
0.0
 11
264.066733452
 21
188.2280611243
 31
0.0
  0
LINE
  5
444
330
1F
100
AcDbEntity
  8
0
  6
Continuous
 62
     7
370
    25
100
AcDbLine
 10
264.0230954014
 20
193.1844234276
 30
0.0
 11
264.0230954014
 21
188.2716991748
 31
0.0
  0
LINE
  5
445
330
1F
100
AcDbEntity
  8
0
  6
Continuous
 62
     7
370
    25
100
AcDbLine
 10
264.0230954014
 20
193.1844234276
 30
0.0
 11
264.066733452
 21
193.2280614782
 31
0.0
  0
LINE
  5
446
330
1F
100
AcDbEntity
  8
0
  6
Continuous
 62
     7
370
    25
100
AcDbLine
 10
263.2014900767
 20
193.1844234276
 30
0.0
 11
264.0230954014
 21
193.1844234276
 31
0.0
  0
LINE
  5
447
330
1F
100
AcDbEntity
  8
0
  6
Continuous
 62
     7
370
    25
100
AcDbLine
 10
263.2014900767
 20
193.1844234276
 30
0.0
 11
263.1667331182
 21
193.2191813174
 31
0.0
  0
ELLIPSE
  5
448
330
1F
100
AcDbEntity
  8
0
  6
Continuous
 62
     7
370
    25
100
AcDbEllipse
 10
263.6666565809
 20
193.2193337595
 30
0.0
 11
0.5
 21
0.0
 31
0.0
210
0.0
220
0.0
230
1.0
 40
0.0174550649
 41
1.570796326794897
 42
3.159045946105952
  0
LINE
  5
449
330
1F
100
AcDbEntity
  8
0
  6
Continuous
 62
     7
370
    25
100
AcDbLine
 10
263.1667331182
 20
193.2191813174
 30
0.0
 11
263.1667331182
 21
200.7280608449
 31
0.0
  0
LINE
  5
44A
330
1F
100
AcDbEntity
  8
0
  6
Continuous
 62
     7
370
    25
100
AcDbLine
 10
321.3142156922
 20
173.184423409
 30
0.0
 11
321.3142156922
 21
172.9780614186
 31
0.0
  0
LINE
  5
44B
330
1F
100
AcDbEntity
  8
0
  6
Continuous
 62
     7
370
    25
100
AcDbLine
 10
321.3142156922
 20
168.4780616123
 30
0.0
 11
321.3142156922
 21
168.2716991562
 31
0.0
  0
LINE
  5
44C
330
1F
100
AcDbEntity
  8
0
  6
Continuous
 62
     7
370
    25
100
AcDbLine
 10
321.3142156922
 20
188.2716991748
 30
0.0
 11
321.3142156922
 21
188.4780611653
 31
0.0
  0
LINE
  5
44D
330
1F
100
AcDbEntity
  8
0
  6
Continuous
 62
     7
370
    25
100
AcDbLine
 10
321.3142156922
 20
192.9780609715
 30
0.0
 11
321.3142156922
 21
193.1844234276
 31
0.0
  0
LINE
  5
44E
330
1F
100
AcDbEntity
  8
0
  6
Continuous
 62
     7
370
    25
100
AcDbLine
 10
263.2014900767
 20
168.2716991562
 30
0.0
 11
263.2014900767
 21
168.4780616123
 31
0.0
  0
LINE
  5
44F
330
1F
100
AcDbEntity
  8
0
  6
Continuous
 62
     7
370
    25
100
AcDbLine
 10
263.2014900767
 20
172.9780614186
 30
0.0
 11
263.2014900767
 21
173.184423409
 31
0.0
  0
LINE
  5
450
330
1F
100
AcDbEntity
  8
0
  6
Continuous
 62
     7
370
    25
100
AcDbLine
 10
263.2014900767
 20
193.1844234276
 30
0.0
 11
263.2014900767
 21
192.9780609715
 31
0.0
  0
LINE
  5
451
330
1F
100
AcDbEntity
  8
0
  6
Continuous
 62
     7
370
    25
100
AcDbLine
 10
263.2014900767
 20
188.4780611653
 30
0.0
 11
263.2014900767
 21
188.2716991748
 31
0.0
  0
ARC
  5
452
330
1F
100
AcDbEntity
  8
0
  6
Continuous
 62
     7
370
    25
100
AcDbCircle
 10
312.2578528844
 20
160.7280612919
 30
0.0
 40
10.23809786205479
100
AcDbArc
 50
270.0
 51
0.0
  0
LINE
  5
453
330
1F
100
AcDbEntity
  8
0
  6
Continuous
 62
     7
370
    25
100
AcDbLine
 10
322.495950418
 20
160.728061739
 30
0.0
 11
322.9958750629
 21
160.728061739
 31
0.0
  0
ARC
  5
454
330
1F
100
AcDbEntity
  8
0
  6
Continuous
 62
     7
370
    25
100
AcDbCircle
 10
312.2578528844
 20
160.7280612919
 30
0.0
 40
10.73802170963296
100
AcDbArc
 50
270.0
 51
0.0
  0
LINE
  5
455
330
1F
100
AcDbEntity
  8
0
  6
Continuous
 62
     7
370
    25
100
AcDbLine
 10
312.2578524374
 20
150.4899637583
 30
0.0
 11
312.2578524374
 21
149.9900391135
 31
0.0
  0
LINE
  5
456
330
1F
100
AcDbEntity
  8
0
  6
Continuous
 62
     7
370
    25
100
AcDbLine
 10
322.495950418
 20
160.728061739
 30
0.0
 11
322.495950418
 21
198.4057316366
 31
0.0
  0
LINE
  5
457
330
1F
100
AcDbEntity
  8
0
  6
Continuous
 62
     7
370
    25
100
AcDbLine
 10
272.2578533315
 20
150.4899637583
 30
0.0
 11
312.2578524374
 21
150.4899637583
 31
0.0
  0
ARC
  5
458
330
1F
100
AcDbEntity
  8
0
  6
Continuous
 62
     7
370
    25
100
AcDbCircle
 10
272.2578528844
 20
160.7280612919
 30
0.0
 40
10.23809786205481
100
AcDbArc
 50
180.0
 51
270.0
  0
LINE
  5
459
330
1F
100
AcDbEntity
  8
0
  6
Continuous
 62
     7
370
    25
100
AcDbLine
 10
262.0197553509
 20
200.7280608449
 30
0.0
 11
262.0197553509
 21
160.728061739
 31
0.0
  0
ARC
  5
45A
330
1F
100
AcDbEntity
  8
0
  6
Continuous
 62
     7
370
    25
100
AcDbCircle
 10
272.2578528844
 20
200.7280612919
 30
0.0
 40
10.23809786205481
100
AcDbArc
 50
90.0
 51
180.0
  0
LINE
  5
45B
330
1F
100
AcDbEntity
  8
0
  6
Continuous
 62
     7
370
    25
100
AcDbLine
 10
309.9355232292
 20
210.9661588255
 30
0.0
 11
272.2578533315
 21
210.9661588255
 31
0.0
  0
LINE
  5
45C
330
1F
100
AcDbEntity
  8
0
  6
Continuous
 62
     7
370
    25
100
AcDbLine
 10
309.9355232292
 20
210.9661588255
 30
0.0
 11
309.9355232292
 21
209.9575085375
 31
0.0
  0
LINE
  5
45D
330
1F
100
AcDbEntity
  8
0
  6
Continuous
 62
     7
370
    25
100
AcDbLine
 10
309.9355232292
 20
209.9575085375
 30
0.0
 11
272.2578533315
 21
209.9575085375
 31
0.0
  0
ARC
  5
45E
330
1F
100
AcDbEntity
  8
0
  6
Continuous
 62
     7
370
    25
100
AcDbCircle
 10
272.2578528844
 20
200.7280612919
 30
0.0
 40
9.229446493612613
100
AcDbArc
 50
90.0
 51
180.0
  0
LINE
  5
45F
330
1F
100
AcDbEntity
  8
0
  6
Continuous
 62
     7
370
    25
100
AcDbLine
 10
263.0284056388
 20
200.7280608449
 30
0.0
 11
263.0284056388
 21
160.728061739
 31
0.0
  0
ARC
  5
460
330
1F
100
AcDbEntity
  8
0
  6
Continuous
 62
     7
370
    25
100
AcDbCircle
 10
272.2578528844
 20
160.7280612919
 30
0.0
 40
9.229446493612613
100
AcDbArc
 50
180.0
 51
270.0
  0
LINE
  5
461
330
1F
100
AcDbEntity
  8
0
  6
Continuous
 62
     7
370
    25
100
AcDbLine
 10
272.2578533315
 20
151.4986140463
 30
0.0
 11
312.2578524374
 21
151.4986140463
 31
0.0
  0
ARC
  5
462
330
1F
100
AcDbEntity
  8
0
  6
Continuous
 62
     7
370
    25
100
AcDbCircle
 10
312.2578528844
 20
160.7280612919
 30
0.0
 40
9.229446493612613
100
AcDbArc
 50
270.0
 51
0.0
  0
LINE
  5
463
330
1F
100
AcDbEntity
  8
0
  6
Continuous
 62
     7
370
    25
100
AcDbLine
 10
321.48730013
 20
160.728061739
 30
0.0
 11
321.48730013
 21
198.4057316366
 31
0.0
  0
LINE
  5
464
330
1F
100
AcDbEntity
  8
0
  6
Continuous
 62
     7
370
    25
100
AcDbLine
 10
321.48730013
 20
198.4057316366
 30
0.0
 11
322.495950418
 21
198.4057316366
 31
0.0
  0
LINE
  5
465
330
1F
100
AcDbEntity
  8
0
  6
Continuous
 62
     7
370
    25
100
AcDbLine
 10
312.2578524374
 20
151.629528198
 30
0.0
 11
312.2578524374
 21
151.4986140463
 31
0.0
  0
ARC
  5
466
330
1F
100
AcDbEntity
  8
0
  6
Continuous
 62
     7
370
    25
100
AcDbCircle
 10
312.2578528844
 20
160.7280612919
 30
0.0
 40
9.098533506650995
100
AcDbArc
 50
270.0
 51
0.0
  0
LINE
  5
467
330
1F
100
AcDbEntity
  8
0
  6
Continuous
 62
     7
370
    25
100
AcDbLine
 10
321.3563859784
 20
160.728061739
 30
0.0
 11
321.48730013
 21
160.728061739
 31
0.0
  0
LINE
  5
468
330
1F
100
AcDbEntity
  8
0
  6
Continuous
 62
     7
370
    25
100
AcDbLine
 10
322.9958750629
 20
198.4143053922
 30
0.0
 11
322.9958750629
 21
160.728061739
 31
0.0
  0
ELLIPSE
  5
469
330
1F
100
AcDbEntity
  8
0
  6
Continuous
 62
     7
370
    25
100
AcDbEllipse
 10
322.4959507465
 20
198.414458354
 30
0.0
 11
0.5000000000000568
 21
0.0
 31
0.0
210
0.0
220
0.0
230
1.0
 40
0.0174550649
 41
4.71238898038469
 42
6.265732014661889
  0
LINE
  5
46A
330
1F
100
AcDbEntity
  8
0
  6
Continuous
 62
     7
370
    25
100
AcDbLine
 10
321.3489726507
 20
187.6623194474
 30
0.0
 11
321.4553427272
 21
187.9816867221
 31
0.0
  0
LINE
  5
46B
330
1F
100
AcDbEntity
  8
0
  6
Continuous
 62
     7
370
    25
100
AcDbLine
 10
321.4553427272
 20
187.9816867221
 30
0.0
 11
321.4553427272
 21
188.4780611653
 31
0.0
  0
LINE
  5
46C
330
1F
100
AcDbEntity
  8
0
  6
Continuous
 62
     7
370
    25
100
AcDbLine
 10
321.4819692396
 20
192.9780609715
 30
0.0
 11
321.4819692396
 21
188.4780611653
 31
0.0
  0
LINE
  5
46D
330
1F
100
AcDbEntity
  8
0
  6
Continuous
 62
     7
370
    25
100
AcDbLine
 10
321.4553427272
 20
192.9780609715
 30
0.0
 11
321.4553427272
 21
193.474436346
 31
0.0
  0
LINE
  5
46E
330
1F
100
AcDbEntity
  8
0
  6
Continuous
 62
     7
370
    25
100
AcDbLine
 10
321.4553427272
 20
193.474436346
 30
0.0
 11
321.3489726507
 21
193.7938026894
 31
0.0
  0
ELLIPSE
  5
46F
330
1F
100
AcDbEntity
  8
0
  6
Continuous
 62
     7
370
    25
100
AcDbEllipse
 10
321.4000240534
 20
204.4939201145
 30
0.0
 11
0.0
 21
6.000000000000028
 31
0.0
210
0.0
220
0.0
230
1.0
 40
0.0174550649
 41
2.632423674741306
 42
3.124139361069645
  0
LINE
  5
470
330
1F
100
AcDbEntity
  8
0
  6
Continuous
 62
     7
370
    25
100
AcDbLine
 10
321.48730013
 20
198.4057316366
 30
0.0
 11
321.398196774
 21
198.49483313
 31
0.0
  0
LINE
  5
471
330
1F
100
AcDbEntity
  8
0
  6
Continuous
 62
     7
370
    25
100
AcDbLine
 10
321.3563859784
 20
160.728061739
 30
0.0
 11
321.3563859784
 21
167.6845775727
 31
0.0
  0
LINE
  5
472
330
1F
100
AcDbEntity
  8
0
  6
Continuous
 62
     7
370
    25
100
AcDbLine
 10
321.3563859784
 20
167.6845775727
 30
0.0
 11
321.4553427272
 21
167.9816862378
 31
0.0
  0
LINE
  5
473
330
1F
100
AcDbEntity
  8
0
  6
Continuous
 62
     7
370
    25
100
AcDbLine
 10
321.4553427272
 20
167.9816862378
 30
0.0
 11
321.4553427272
 21
168.4780616123
 31
0.0
  0
LINE
  5
474
330
1F
100
AcDbEntity
  8
0
  6
Continuous
 62
     7
370
    25
100
AcDbLine
 10
321.4819692396
 20
172.9780614186
 30
0.0
 11
321.4819692396
 21
168.4780616123
 31
0.0
  0
LINE
  5
475
330
1F
100
AcDbEntity
  8
0
  6
Continuous
 62
     7
370
    25
100
AcDbLine
 10
321.4553427272
 20
172.9780614186
 30
0.0
 11
321.4553427272
 21
173.4744358618
 31
0.0
  0
LINE
  5
476
330
1F
100
AcDbEntity
  8
0
  6
Continuous
 62
     7
370
    25
100
AcDbLine
 10
321.4553427272
 20
173.4744358618
 30
0.0
 11
321.3563859784
 21
173.7715449925
 31
0.0
  0
LINE
  5
477
330
1F
100
AcDbEntity
  8
0
  6
Continuous
 62
     7
370
    25
100
AcDbLine
 10
321.3563859784
 20
173.7715449925
 30
0.0
 11
321.3563859784
 21
182.863643793
 31
0.0
  0
LINE
  5
478
330
1F
100
AcDbEntity
  8
0
  6
Continuous
 62
     7
370
    25
100
AcDbLine
 10
321.3489726507
 20
182.8710573535
 30
0.0
 11
321.3563859784
 21
182.863643793
 31
0.0
  0
LINE
  5
479
330
1F
100
AcDbEntity
  8
0
  6
Continuous
 62
     7
370
    25
100
AcDbLine
 10
312.2578524374
 20
149.9900391135
 30
0.0
 11
272.2578533315
 21
149.9900391135
 31
0.0
  0
LINE
  5
47A
330
1F
100
AcDbEntity
  8
0
  6
Continuous
 62
     7
370
    25
100
AcDbLine
 10
272.2578533315
 20
150.4899637583
 30
0.0
 11
272.2578533315
 21
149.9900391135
 31
0.0
  0
ELLIPSE
  5
47B
330
1F
100
AcDbEntity
  8
0
  6
Continuous
 62
     7
370
    25
100
AcDbEllipse
 10
277.6318040151
 20
151.6469828502
 30
0.0
 11
1.0
 21
0.0
 31
0.0
210
0.0
220
0.0
230
1.0
 40
0.0174550649
 41
3.754550256620887
 42
4.71238898038469
  0
LINE
  5
47C
330
1F
100
AcDbEntity
  8
0
  6
Continuous
 62
     7
370
    25
100
AcDbLine
 10
277.6318043791
 20
151.629528198
 30
0.0
 11
312.2578524374
 21
151.629528198
 31
0.0
  0
LINE
  5
47D
330
1F
100
AcDbEntity
  8
0
  6
Continuous
 62
     7
370
    25
100
AcDbLine
 10
323.0764028006
 20
198.49483313
 30
0.0
 11
321.398196774
 21
198.49483313
 31
0.0
  0
LINE
  5
47E
330
1F
100
AcDbEntity
  8
0
  6
Continuous
 62
     7
370
    25
100
AcDbLine
 10
322.9958750629
 20
198.4143053922
 30
0.0
 11
323.0764028006
 21
198.49483313
 31
0.0
  0
LINE
  5
47F
330
1F
100
AcDbEntity
  8
0
  6
Continuous
 62
     7
370
    25
100
AcDbLine
 10
294.400848946
 20
209.8191810582
 30
0.0
 11
294.3934353855
 21
209.8265943858
 31
0.0
  0
LINE
  5
480
330
1F
100
AcDbEntity
  8
0
  6
Continuous
 62
     7
370
    25
100
AcDbLine
 10
294.3934353855
 20
209.8265943858
 30
0.0
 11
272.2578533315
 21
209.8265943858
 31
0.0
  0
LINE
  5
481
330
1F
100
AcDbEntity
  8
0
  6
Continuous
 62
     7
370
    25
100
AcDbLine
 10
272.2578533315
 20
209.8265943858
 30
0.0
 11
272.2578533315
 21
209.9575085375
 31
0.0
  0
LINE
  5
482
330
1F
100
AcDbEntity
  8
0
  6
Continuous
 62
     7
370
    25
100
AcDbLine
 10
310.0246247225
 20
209.8684051815
 30
0.0
 11
309.9355232292
 21
209.9575085375
 31
0.0
  0
ELLIPSE
  5
483
330
1F
100
AcDbEntity
  8
0
  6
Continuous
 62
     7
370
    25
100
AcDbEllipse
 10
316.023711707
 20
209.8702324609
 30
0.0
 11
6.0
 21
0.0
 31
0.0
210
0.0
220
0.0
230
1.0
 40
0.0174550649
 41
3.159045946110466
 42
3.650761632438015
  0
ELLIPSE
  5
484
330
1F
100
AcDbEntity
  8
0
  6
Continuous
 62
     7
370
    25
100
AcDbEllipse
 10
309.9442499466
 20
210.966159154
 30
0.0
 11
0.0
 21
0.5
 31
0.0
210
0.0
220
0.0
230
1.0
 40
0.0174550649
 41
0.0174532925249519
 42
1.570796326794897
  0
LINE
  5
485
330
1F
100
AcDbEntity
  8
0
  6
Continuous
 62
     7
370
    25
100
AcDbLine
 10
310.0246247225
 20
211.5466112081
 30
0.0
 11
309.9440969848
 21
211.4660834703
 31
0.0
  0
LINE
  5
486
330
1F
100
AcDbEntity
  8
0
  6
Continuous
 62
     7
370
    25
100
AcDbLine
 10
310.0246247225
 20
209.8684051815
 30
0.0
 11
310.0246247225
 21
211.5466112081
 31
0.0
  0
LINE
  5
487
330
1F
100
AcDbEntity
  8
0
  6
Continuous
 62
     7
370
    25
100
AcDbLine
 10
272.2578533315
 20
211.4660834703
 30
0.0
 11
272.2578533315
 21
210.9661588255
 31
0.0
  0
LINE
  5
488
330
1F
100
AcDbEntity
  8
0
  6
Continuous
 62
     7
370
    25
100
AcDbLine
 10
272.2578533315
 20
211.4660834703
 30
0.0
 11
309.9440969848
 21
211.4660834703
 31
0.0
  0
ARC
  5
489
330
1F
100
AcDbEntity
  8
0
  6
Continuous
 62
     7
370
    25
100
AcDbCircle
 10
272.2578528844
 20
160.7280612919
 30
0.0
 40
10.73802170963302
100
AcDbArc
 50
180.0
 51
270.0
  0
LINE
  5
48A
330
1F
100
AcDbEntity
  8
0
  6
Continuous
 62
     7
370
    25
100
AcDbLine
 10
262.0197553509
 20
160.728061739
 30
0.0
 11
261.519830706
 21
160.728061739
 31
0.0
  0
LINE
  5
48B
330
1F
100
AcDbEntity
  8
0
  6
Continuous
 62
     7
370
    25
100
AcDbLine
 10
263.1593197905
 20
167.6845775727
 30
0.0
 11
263.1593197905
 21
166.1020127866
 31
0.0
  0
ELLIPSE
  5
48C
330
1F
100
AcDbEntity
  8
0
  6
Continuous
 62
     7
370
    25
100
AcDbEllipse
 10
263.1767744427
 20
166.1020124226
 30
0.0
 11
0.0
 21
1.0
 31
0.0
210
0.0
220
0.0
230
1.0
 40
0.0174550649
 41
1.570796326794897
 42
2.528635050550858
  0
LINE
  5
48D
330
1F
100
AcDbEntity
  8
0
  6
Continuous
 62
     7
370
    25
100
AcDbLine
 10
263.1593197905
 20
200.7280608449
 30
0.0
 11
263.0284056388
 21
200.7280608449
 31
0.0
  0
LINE
  5
48E
330
1F
100
AcDbEntity
  8
0
  6
Continuous
 62
     7
370
    25
100
AcDbLine
 10
263.1593197905
 20
200.7280608449
 30
0.0
 11
263.1593197905
 21
193.7715450111
 31
0.0
  0
LINE
  5
48F
330
1F
100
AcDbEntity
  8
0
  6
Continuous
 62
     7
370
    25
100
AcDbLine
 10
263.1593197905
 20
193.7715450111
 30
0.0
 11
263.0603630417
 21
193.474436346
 31
0.0
  0
LINE
  5
490
330
1F
100
AcDbEntity
  8
0
  6
Continuous
 62
     7
370
    25
100
AcDbLine
 10
263.0603630417
 20
192.9780609715
 30
0.0
 11
263.0603630417
 21
193.474436346
 31
0.0
  0
LINE
  5
491
330
1F
100
AcDbEntity
  8
0
  6
Continuous
 62
     7
370
    25
100
AcDbLine
 10
263.0337365293
 20
188.4780611653
 30
0.0
 11
263.0337365293
 21
192.9780609715
 31
0.0
  0
LINE
  5
492
330
1F
100
AcDbEntity
  8
0
  6
Continuous
 62
     7
370
    25
100
AcDbLine
 10
263.0603630417
 20
187.9816867221
 30
0.0
 11
263.0603630417
 21
188.4780611653
 31
0.0
  0
LINE
  5
493
330
1F
100
AcDbEntity
  8
0
  6
Continuous
 62
     7
370
    25
100
AcDbLine
 10
263.0603630417
 20
187.9816867221
 30
0.0
 11
263.1593197905
 21
187.6845775913
 31
0.0
  0
LINE
  5
494
330
1F
100
AcDbEntity
  8
0
  6
Continuous
 62
     7
370
    25
100
AcDbLine
 10
263.1593197905
 20
187.6845775913
 30
0.0
 11
263.1593197905
 21
173.7715449925
 31
0.0
  0
LINE
  5
495
330
1F
100
AcDbEntity
  8
0
  6
Continuous
 62
     7
370
    25
100
AcDbLine
 10
263.1593197905
 20
173.7715449925
 30
0.0
 11
263.0603630417
 21
173.4744358618
 31
0.0
  0
LINE
  5
496
330
1F
100
AcDbEntity
  8
0
  6
Continuous
 62
     7
370
    25
100
AcDbLine
 10
263.0603630417
 20
172.9780614186
 30
0.0
 11
263.0603630417
 21
173.4744358618
 31
0.0
  0
LINE
  5
497
330
1F
100
AcDbEntity
  8
0
  6
Continuous
 62
     7
370
    25
100
AcDbLine
 10
263.0337365293
 20
168.4780616123
 30
0.0
 11
263.0337365293
 21
172.9780614186
 31
0.0
  0
LINE
  5
498
330
1F
100
AcDbEntity
  8
0
  6
Continuous
 62
     7
370
    25
100
AcDbLine
 10
263.0603630417
 20
167.9816862378
 30
0.0
 11
263.0603630417
 21
168.4780616123
 31
0.0
  0
LINE
  5
499
330
1F
100
AcDbEntity
  8
0
  6
Continuous
 62
     7
370
    25
100
AcDbLine
 10
263.0603630417
 20
167.9816862378
 30
0.0
 11
263.1593197905
 21
167.6845775727
 31
0.0
  0
LINE
  5
49A
330
1F
100
AcDbEntity
  8
0
  6
Continuous
 62
     7
370
    25
100
AcDbLine
 10
261.519830706
 20
160.728061739
 30
0.0
 11
261.519830706
 21
200.7280608449
 31
0.0
  0
LINE
  5
49B
330
1F
100
AcDbEntity
  8
0
  6
Continuous
 62
     7
370
    25
100
AcDbLine
 10
261.519830706
 20
200.7280608449
 30
0.0
 11
262.0197553509
 21
200.7280608449
 31
0.0
  0
ARC
  5
49C
330
1F
100
AcDbEntity
  8
0
  6
Continuous
 62
     7
370
    25
100
AcDbCircle
 10
272.2578528844
 20
200.7280612919
 30
0.0
 40
10.73802170963302
100
AcDbArc
 50
90.0
 51
180.0
  0
ARC
  5
49D
330
1F
100
AcDbEntity
  8
0
  6
Continuous
 62
     7
370
    25
100
AcDbCircle
 10
272.2578528844
 20
200.7280612919
 30
0.0
 40
9.098533506650995
100
AcDbArc
 50
90.0
 51
180.0
  0
LINE
  5
49E
330
1F
100
AcDbEntity
  8
0
  6
Continuous
 62
     7
370
    25
100
AcDbLine
 10
320.6872996264
 20
168.4780616123
 30
0.0
 11
320.6872996264
 21
172.9780614186
 31
0.0
  0
LINE
  5
49F
330
1F
100
AcDbEntity
  8
0
  6
Continuous
 62
     7
370
    25
100
AcDbLine
 10
320.6872996264
 20
172.9780614186
 30
0.0
 11
321.4819692396
 21
172.9780614186
 31
0.0
  0
LINE
  5
4A0
330
1F
100
AcDbEntity
  8
0
  6
Continuous
 62
     7
370
    25
100
AcDbLine
 10
321.4819692396
 20
168.4780616123
 30
0.0
 11
320.6872996264
 21
168.4780616123
 31
0.0
  0
LINE
  5
4A1
330
1F
100
AcDbEntity
  8
0
  6
Continuous
 62
     7
370
    25
100
AcDbLine
 10
320.6872996264
 20
188.4780611653
 30
0.0
 11
320.6872996264
 21
192.9780609715
 31
0.0
  0
LINE
  5
4A2
330
1F
100
AcDbEntity
  8
0
  6
Continuous
 62
     7
370
    25
100
AcDbLine
 10
320.6872996264
 20
192.9780609715
 30
0.0
 11
321.4819692396
 21
192.9780609715
 31
0.0
  0
LINE
  5
4A3
330
1F
100
AcDbEntity
  8
0
  6
Continuous
 62
     7
370
    25
100
AcDbLine
 10
321.4819692396
 20
188.4780611653
 30
0.0
 11
320.6872996264
 21
188.4780611653
 31
0.0
  0
LINE
  5
4A4
330
1F
100
AcDbEntity
  8
0
  6
Continuous
 62
     7
370
    25
100
AcDbLine
 10
263.8284061425
 20
172.9780614186
 30
0.0
 11
263.8284061425
 21
168.4780616123
 31
0.0
  0
LINE
  5
4A5
330
1F
100
AcDbEntity
  8
0
  6
Continuous
 62
     7
370
    25
100
AcDbLine
 10
263.8284061425
 20
168.4780616123
 30
0.0
 11
263.0337365293
 21
168.4780616123
 31
0.0
  0
LINE
  5
4A6
330
1F
100
AcDbEntity
  8
0
  6
Continuous
 62
     7
370
    25
100
AcDbLine
 10
263.0337365293
 20
172.9780614186
 30
0.0
 11
263.8284061425
 21
172.9780614186
 31
0.0
  0
LINE
  5
4A7
330
1F
100
AcDbEntity
  8
0
  6
Continuous
 62
     7
370
    25
100
AcDbLine
 10
263.8284061425
 20
192.9780609715
 30
0.0
 11
263.8284061425
 21
188.4780611653
 31
0.0
  0
LINE
  5
4A8
330
1F
100
AcDbEntity
  8
0
  6
Continuous
 62
     7
370
    25
100
AcDbLine
 10
263.8284061425
 20
188.4780611653
 30
0.0
 11
263.0337365293
 21
188.4780611653
 31
0.0
  0
LINE
  5
4A9
330
1F
100
AcDbEntity
  8
0
  6
Continuous
 62
     7
370
    25
100
AcDbLine
 10
263.0337365293
 20
192.9780609715
 30
0.0
 11
263.8284061425
 21
192.9780609715
 31
0.0
  0
ARC
  5
4AA
330
1F
100
AcDbEntity
  8
0
  6
Continuous
 62
     7
370
    25
100
AcDbCircle
 10
312.2578528844
 20
160.7280612919
 30
0.0
 40
10.99825449350718
100
AcDbArc
 50
270.0
 51
0.0
  0
LINE
  5
4AB
330
1F
100
AcDbEntity
  8
0
  6
Continuous
 62
     7
370
    25
100
AcDbLine
 10
312.2578524374
 20
149.9900391135
 30
0.0
 11
312.2578524374
 21
149.7298070971
 31
0.0
  0
LINE
  5
4AC
330
1F
100
AcDbEntity
  8
0
  6
Continuous
 62
     7
370
    25
100
AcDbLine
 10
322.9958750629
 20
160.728061739
 30
0.0
 11
323.2561070793
 21
160.728061739
 31
0.0
  0
ELLIPSE
  5
4AD
330
1F
100
AcDbEntity
  8
0
  6
Continuous
 62
     7
370
    25
100
AcDbEllipse
 10
323.0745747027
 20
204.4939201145
 30
0.0
 11
0.0
 21
6.000000000000028
 31
0.0
210
0.0
220
0.0
230
1.0
 40
0.0174550649
 41
3.159045946110751
 42
4.033866913679724
  0
LINE
  5
4AE
330
1F
100
AcDbEntity
  8
0
  6
Continuous
 62
     7
370
    25
100
AcDbLine
 10
323.1561072492
 20
200.7280608449
 30
0.0
 11
323.2561070793
 21
200.7280608449
 31
0.0
  0
LINE
  5
4AF
330
1F
100
AcDbEntity
  8
0
  6
Continuous
 62
     7
370
    25
100
AcDbLine
 10
323.2561070793
 20
200.7280608449
 30
0.0
 11
323.2561070793
 21
160.728061739
 31
0.0
  0
LINE
  5
4B0
330
1F
100
AcDbEntity
  8
0
  6
Continuous
 62
     7
370
    25
100
AcDbLine
 10
312.2578524374
 20
149.7298070971
 30
0.0
 11
272.2578533315
 21
149.7298070971
 31
0.0
  0
LINE
  5
4B1
330
1F
100
AcDbEntity
  8
0
  6
Continuous
 62
     7
370
    25
100
AcDbLine
 10
272.2578533315
 20
149.9900391135
 30
0.0
 11
272.2578533315
 21
149.7298070971
 31
0.0
  0
LINE
  5
4B2
330
1F
100
AcDbEntity
  8
0
  6
Continuous
 62
     7
370
    25
100
AcDbLine
 10
272.2578533315
 20
211.4660834703
 30
0.0
 11
272.2578533315
 21
211.7263154868
 31
0.0
  0
LINE
  5
4B3
330
1F
100
AcDbEntity
  8
0
  6
Continuous
 62
     7
370
    25
100
AcDbLine
 10
272.2578533315
 20
211.7263154868
 30
0.0
 11
312.2578524374
 21
211.7263154868
 31
0.0
  0
LINE
  5
4B4
330
1F
100
AcDbEntity
  8
0
  6
Continuous
 62
     7
370
    25
100
AcDbLine
 10
312.2578524374
 20
211.6263156566
 30
0.0
 11
312.2578524374
 21
211.7263154868
 31
0.0
  0
ELLIPSE
  5
4B5
330
1F
100
AcDbEntity
  8
0
  6
Continuous
 62
     7
370
    25
100
AcDbEllipse
 10
316.023711707
 20
211.5447831102
 30
0.0
 11
6.0
 21
-2.842170943040401E-14
 31
0.0
210
0.0
220
0.0
230
1.0
 40
0.0174550649
 41
2.249318393500556
 42
3.124139361070179
  0
ARC
  5
4B6
330
1F
100
AcDbEntity
  8
0
  6
Continuous
 62
     7
370
    25
100
AcDbCircle
 10
272.2578528844
 20
160.7280612919
 30
0.0
 40
10.9982544935072
100
AcDbArc
 50
180.0
 51
270.0
  0
LINE
  5
4B7
330
1F
100
AcDbEntity
  8
0
  6
Continuous
 62
     7
370
    25
100
AcDbLine
 10
261.519830706
 20
160.728061739
 30
0.0
 11
261.2595986896
 21
160.728061739
 31
0.0
  0
LINE
  5
4B8
330
1F
100
AcDbEntity
  8
0
  6
Continuous
 62
     7
370
    25
100
AcDbLine
 10
261.2595986896
 20
160.728061739
 30
0.0
 11
261.2595986896
 21
200.7280608449
 31
0.0
  0
LINE
  5
4B9
330
1F
100
AcDbEntity
  8
0
  6
Continuous
 62
     7
370
    25
100
AcDbLine
 10
261.519830706
 20
200.7280608449
 30
0.0
 11
261.2595986896
 21
200.7280608449
 31
0.0
  0
ARC
  5
4BA
330
1F
100
AcDbEntity
  8
0
  6
Continuous
 62
     7
370
    25
100
AcDbCircle
 10
272.2578528844
 20
200.7280612919
 30
0.0
 40
10.9982544935072
100
AcDbArc
 50
90.0
 51
180.0
  0
LINE
  5
4BB
330
1F
100
AcDbEntity
  8
0
  6
Continuous
 62
     7
370
    25
100
AcDbLine
 10
310.7470888965
 20
173.2888549376
 30
0.0
 11
308.1823401474
 21
170.7241071198
 31
0.0
  0
LINE
  5
4BC
330
1F
100
AcDbEntity
  8
0
  6
Continuous
 62
     7
370
    25
100
AcDbLine
 10
282.2538987123
 20
196.6525485549
 30
0.0
 11
284.8186465301
 21
199.217297304
 31
0.0
  0
SPLINE
  5
4BD
330
1F
100
AcDbEntity
  8
0
  6
Continuous
 62
     7
370
    25
100
AcDbSpline
210
0.0
220
0.0
230
1.0
 70
     8
 71
     3
 72
    16
 73
    12
 74
     0
 42
0.000000001
 43
0.00000001
 40
0.0
 40
0.0
 40
0.0
 40
0.0
 40
0.250000000000002
 40
0.250000000000002
 40
0.3750000000000026
 40
0.3750000000000026
 40
0.5000000000000032
 40
0.5000000000000032
 40
0.7500000000000017
 40
0.7500000000000017
 40
1.0
 40
1.0
 40
1.0
 40
1.0
 10
322.5095076609271
 20
204.4939201144853
 30
0.0
 10
322.6296142872198
 20
204.1669583968177
 30
0.0
 10
322.7318612127806
 20
203.8390508415212
 30
0.0
 10
322.860167204491
 20
203.3465555385121
 30
0.0
 10
322.8987498269188
 20
203.182286733426
 30
0.0
 10
322.9677431390603
 20
202.8537087222759
 30
0.0
 10
322.9982481691654
 20
202.688632380283
 30
0.0
 10
323.0763127295126
 20
202.2035857599833
 30
0.0
 10
323.1111303426096
 20
201.8913300500641
 30
0.0
 10
323.1530134031852
 20
201.2899024854192
 30
0.0
 10
323.1599242738995
 20
200.9992857589109
 30
0.0
 10
323.156107434906
 20
200.7280612919171
 30
0.0
  0
SPLINE
  5
4BE
330
1F
100
AcDbEntity
  8
0
  6
Continuous
 62
     7
370
    25
100
AcDbSpline
210
0.0
220
0.0
230
1.0
 70
     8
 71
     3
 72
    16
 73
    12
 74
     0
 42
0.000000001
 43
0.00000001
 40
0.0
 40
0.0
 40
0.0
 40
0.0
 40
0.2499999999999997
 40
0.2499999999999997
 40
0.3750000000000005
 40
0.3750000000000005
 40
0.5000000000000013
 40
0.5000000000000013
 40
0.7500000000000007
 40
0.7500000000000007
 40
1.0
 40
1.0
 40
1.0
 40
1.0
 10
312.2578528844412
 20
211.6263158423819
 30
0.0
 10
312.5290325626991
 20
211.6301320510806
 30
0.0
 10
312.8150653678337
 20
211.6233889842131
 30
0.0
 10
313.2651315672395
 20
211.5922773533464
 30
0.0
 10
313.4186766365955
 20
211.5784016249431
 30
0.0
 10
313.7328329452338
 20
211.5426492400405
 30
0.0
 10
313.8942404591744
 20
211.5206182186687
 30
0.0
 10
314.3792662034959
 20
211.4425965954286
 30
0.0
 10
314.7057912566498
 20
211.374607114052
 30
0.0
 10
315.3635466172393
 20
211.2036478395935
 30
0.0
 10
315.6966578259419
 20
211.0998565501425
 30
0.0
 10
316.0237117070094
 20
210.9797160684031
 30
0.0
  0
LINE
  5
4BF
330
1F
100
AcDbEntity
  8
0
  6
Continuous
 62
     7
370
    25
100
AcDbLine
 10
321.3563859784
 20
167.6845775727
 30
0.0
 11
321.3489726507
 21
167.6845775727
 31
0.0
  0
LINE
  5
4C0
330
1F
100
AcDbEntity
  8
0
  6
Continuous
 62
     7
370
    25
100
AcDbLine
 10
321.3489726507
 20
182.863643793
 30
0.0
 11
321.3563859784
 21
182.863643793
 31
0.0
  0
LINE
  5
4C1
330
1F
100
AcDbEntity
  8
0
  6
Continuous
 62
     7
370
    25
100
AcDbLine
 10
321.3489726507
 20
173.7715449925
 30
0.0
 11
321.3563859784
 21
173.7715449925
 31
0.0
  0
LINE
  5
4C2
330
1F
100
AcDbEntity
  8
0
  6
Continuous
 62
     7
370
    25
100
AcDbLine
 10
294.3934353855
 20
209.8265943858
 30
0.0
 11
294.3934353855
 21
209.8191810582
 31
0.0
  0
LINE
  5
4C3
330
1F
100
AcDbEntity
  8
0
  6
Continuous
 62
     7
370
    25
100
AcDbLine
 10
263.1593197905
 20
193.7715450111
 30
0.0
 11
263.1667331182
 21
193.7715450111
 31
0.0
  0
LINE
  5
4C4
330
1F
100
AcDbEntity
  8
0
  6
Continuous
 62
     7
370
    25
100
AcDbLine
 10
263.1667331182
 20
167.6845775727
 30
0.0
 11
263.1593197905
 21
167.6845775727
 31
0.0
  0
LINE
  5
4C5
330
1F
100
AcDbEntity
  8
0
  6
Continuous
 62
     7
370
    25
100
AcDbLine
 10
263.1667331182
 20
187.6845775913
 30
0.0
 11
263.1593197905
 21
187.6845775913
 31
0.0
  0
LINE
  5
4C6
330
1F
100
AcDbEntity
  8
0
  6
Continuous
 62
     7
370
    25
100
AcDbLine
 10
263.1593197905
 20
173.7715449925
 30
0.0
 11
263.1667331182
 21
173.7715449925
 31
0.0
  0
SPLINE
  5
4C7
330
1F
100
AcDbEntity
  8
0
  6
Continuous
 62
     7
370
    25
100
AcDbSpline
210
0.0
220
0.0
230
1.0
 70
     8
 71
     3
 72
    12
 73
     8
 74
     0
 42
0.000000001
 43
0.00000001
 40
0.0
 40
0.0
 40
0.0
 40
0.0
 40
0.2500000000000006
 40
0.2500000000000006
 40
0.5000000000000013
 40
0.5000000000000013
 40
1.0
 40
1.0
 40
1.0
 40
1.0
 10
316.7215265780137
 20
210.7778785568626
 30
0.0
 10
316.7200919227385
 20
210.7764439015874
 30
0.0
 10
316.7404394594962
 20
210.7654393923126
 30
0.0
 10
316.8190329479496
 20
210.7262122370432
 30
0.0
 10
316.8774375277613
 20
210.6978655216076
 30
0.0
 10
317.0890804454623
 20
210.5937477615709
 30
0.0
 10
317.280928371157
 20
210.4969483364188
 30
0.0
 10
317.4700160144619
 20
210.3949971434123
 30
0.0
  0
ARC
  5
4C8
330
1F
100
AcDbEntity
  8
0
  6
Continuous
 62
     7
370
    25
100
AcDbCircle
 10
312.2578528844
 20
200.7280612919
 30
0.0
 40
10.98254493507176
100
AcDbArc
 50
28.3324042333
 51
61.6675957667
  0
SPLINE
  5
4C9
330
1F
100
AcDbEntity
  8
0
  6
Continuous
 62
     7
370
    25
100
AcDbSpline
210
0.0
220
0.0
230
1.0
 70
     8
 71
     3
 72
    12
 73
     8
 74
     0
 42
0.000000001
 43
0.00000001
 40
0.0
 40
0.0
 40
0.0
 40
0.0
 40
0.2500000000000007
 40
0.2500000000000007
 40
0.5000000000000013
 40
0.5000000000000013
 40
1.0
 40
1.0
 40
1.0
 40
1.0
 10
321.9247887359367
 20
205.9402244219372
 30
0.0
 10
321.975678216079
 20
205.8458403192568
 30
0.0
 10
322.025456231001
 20
205.7508017342679
 30
0.0
 10
322.116806719944
 20
205.5721003074774
 30
0.0
 10
322.1579014937837
 20
205.4894396575314
 30
0.0
 10
322.262979138474
 20
205.2758466591158
 30
0.0
 10
322.3047996209475
 20
205.1888644570496
 30
0.0
 10
322.3076701493869
 20
205.191734985489
 30
0.0
  0
LINE
  5
4CA
330
1F
100
AcDbEntity
  8
0
  6
Continuous
 62
     7
370
    25
100
AcDbLine
 10
322.3076705211
 20
205.1917353455
 30
0.0
 11
322.3089929991
 21
205.1930578235
 31
0.0
  0
ARC
  5
4CB
330
1F
100
AcDbEntity
  8
0
  6
Continuous
 62
     7
370
    25
100
AcDbCircle
 10
312.2578528844
 20
200.7280612919
 30
0.0
 40
10.99825449350717
100
AcDbArc
 50
0.0
 51
23.9521251571
  0
ARC
  5
4CC
330
1F
100
AcDbEntity
  8
0
  6
Continuous
 62
     7
370
    25
100
AcDbCircle
 10
312.2578528844
 20
200.7280612919
 30
0.0
 40
10.92145220782299
100
AcDbArc
 50
20.1703816973
 51
69.8296183027
  0
ARC
  5
4CD
330
1F
100
AcDbEntity
  8
0
  6
Continuous
 62
     7
370
    25
100
AcDbCircle
 10
312.2578528844
 20
200.7280612919
 30
0.0
 40
10.99825449350715
100
AcDbArc
 50
66.0478748429
 51
90.0
  0
LINE
  5
4CE
330
1F
100
AcDbEntity
  8
0
  6
Continuous
 62
     7
370
    25
100
AcDbLine
 10
316.722849416
 20
210.7792014066
 30
0.0
 11
316.721526938
 21
210.7778789285
 31
0.0
  0
LINE
  5
4CF
330
1F
100
AcDbEntity
  8
0
  6
Continuous
 62
     7
370
    25
100
AcDbLine
 10
286.4268659935
 20
200.118409637
 30
0.0
 11
281.5098576569
 21
195.2014008347
 31
0.0
  0
ELLIPSE
  5
4D0
330
1F
100
AcDbEntity
  8
0
  6
Continuous
 62
     7
370
    25
100
AcDbEllipse
 10
281.8635730105
 20
194.8479017466
 30
0.0
 11
0.5001523164455079
 21
0.0
 31
0.0
210
0.0
220
0.0
230
1.0
 40
0.9996954599
 41
2.35634678344002
 42
3.92683852373966
  0
LINE
  5
4D1
330
1F
100
AcDbEntity
  8
0
  6
Continuous
 62
     7
370
    25
100
AcDbLine
 10
281.5098576569
 20
194.4944022033
 30
0.0
 11
306.0241937958
 21
169.9800660643
 31
0.0
  0
ELLIPSE
  5
4D2
330
1F
100
AcDbEntity
  8
0
  6
Continuous
 62
     7
370
    25
100
AcDbEllipse
 10
306.3776933391
 20
170.333781418
 30
0.0
 11
0.0
 21
0.5001523164455364
 31
0.0
210
0.0
220
0.0
230
1.0
 40
0.9996954599
 41
2.356346783439855
 42
3.926838523739665
  0
LINE
  5
4D3
330
1F
100
AcDbEntity
  8
0
  6
Continuous
 62
     7
370
    25
100
AcDbLine
 10
306.7311924272
 20
169.9800660643
 30
0.0
 11
311.6482012295
 21
174.897074401
 31
0.0
  0
LINE
  5
4D4
330
1F
100
AcDbEntity
  8
0
  6
Continuous
 62
     7
370
    25
100
AcDbLine
 10
281.0414377921
 20
194.2557154033
 30
0.0
 11
305.7855069958
 21
169.5116461996
 31
0.0
  0
LINE
  5
4D5
330
1F
100
AcDbEntity
  8
0
  6
Continuous
 62
     7
370
    25
100
AcDbLine
 10
306.7311924272
 20
169.9850039366
 30
0.0
 11
306.7311924272
 21
169.9800660643
 31
0.0
  0
LINE
  5
4D6
330
1F
100
AcDbEntity
  8
0
  6
Continuous
 62
     7
370
    25
100
AcDbLine
 10
306.7311924272
 20
169.9850039366
 30
0.0
 11
311.6521444493
 21
174.905955493
 31
0.0
  0
LINE
  5
4D7
330
1F
100
AcDbEntity
  8
0
  6
Continuous
 62
     7
370
    25
100
AcDbLine
 10
304.1593227856
 20
169.0970949638
 30
0.0
 11
280.6268865564
 21
192.6295311931
 31
0.0
  0
LINE
  5
4D8
330
1F
100
AcDbEntity
  8
0
  6
Continuous
 62
     7
370
    25
100
AcDbLine
 10
306.0241937958
 20
169.9800660643
 30
0.0
 11
306.0241937958
 21
169.9850039366
 31
0.0
  0
ELLIPSE
  5
4D9
330
1F
100
AcDbEntity
  8
0
  6
Continuous
 62
     7
370
    25
100
AcDbEllipse
 10
306.3776933391
 20
170.3387184559
 30
0.0
 11
0.0
 21
0.5001523164455648
 31
0.0
210
0.0
220
0.0
230
1.0
 40
0.9996954599
 41
2.3563467834399
 42
3.92683852373962
  0
LINE
  5
4DA
330
1F
100
AcDbEntity
  8
0
  6
Continuous
 62
     7
370
    25
100
AcDbLine
 10
281.5147955292
 20
194.4944022033
 30
0.0
 11
281.5098576569
 21
194.4944022033
 31
0.0
  0
LINE
  5
4DB
330
1F
100
AcDbEntity
  8
0
  6
Continuous
 62
     7
370
    25
100
AcDbLine
 10
281.5147955292
 20
194.4944022033
 30
0.0
 11
306.0241937958
 21
169.9850039366
 31
0.0
  0
LINE
  5
4DC
330
1F
100
AcDbEntity
  8
0
  6
Continuous
 62
     7
370
    25
100
AcDbLine
 10
286.4357470856
 20
200.1223528567
 30
0.0
 11
281.5147955292
 21
195.2014008347
 31
0.0
  0
LINE
  5
4DD
330
1F
100
AcDbEntity
  8
0
  6
Continuous
 62
     7
370
    25
100
AcDbLine
 10
281.5098576569
 20
195.2014008347
 30
0.0
 11
281.5147955292
 21
195.2014008347
 31
0.0
  0
ELLIPSE
  5
4DE
330
1F
100
AcDbEntity
  8
0
  6
Continuous
 62
     7
370
    25
100
AcDbEllipse
 10
281.8685100485
 20
194.8479017466
 30
0.0
 11
0.5001523164455079
 21
0.0
 31
0.0
210
0.0
220
0.0
230
1.0
 40
0.9996954599
 41
2.35634678343994
 42
3.92683852373966
  0
LINE
  5
4DF
330
1F
100
AcDbEntity
  8
0
  6
Continuous
 62
     7
370
    25
100
AcDbLine
 10
304.1445045122
 20
169.094629753
 30
0.0
 11
280.6244213455
 21
192.6147129196
 31
0.0
  0
LINE
  5
4E0
330
1F
100
AcDbEntity
  8
0
  6
Continuous
 62
     8
370
    25
100
AcDbLine
 10
300.6789042004
 20
169.1295375857
 30
0.0
 11
294.7740475968
 21
175.034393258
 31
0.0
  0
LINE
  5
4E1
330
1F
100
AcDbEntity
  8
0
  6
Continuous
 62
     8
370
    25
100
AcDbLine
 10
295.1155540389
 20
175.3758999329
 30
0.0
 11
301.4776343801
 21
169.0138198245
 31
0.0
  0
LINE
  5
4E2
330
1F
100
AcDbEntity
  8
0
  6
Continuous
 62
     8
370
    25
100
AcDbLine
 10
295.9999328334
 20
176.2602787275
 30
0.0
 11
303.2709881984
 21
168.989222664
 31
0.0
  0
LINE
  5
4E3
330
1F
100
AcDbEntity
  8
0
  6
Continuous
 62
     8
370
    25
100
AcDbLine
 10
272.2578533315
 20
151.6369415257
 30
0.0
 11
272.2578533315
 21
151.4986140463
 31
0.0
  0
LINE
  5
4E4
330
1F
100
AcDbEntity
  8
0
  6
Continuous
 62
     8
370
    25
100
AcDbLine
 10
263.1667331182
 20
160.728061739
 30
0.0
 11
263.0284056388
 21
160.728061739
 31
0.0
  0
LINE
  5
4E5
330
1F
100
AcDbEntity
  8
0
  6
Continuous
 62
     8
370
    25
100
AcDbLine
 10
320.5323182367
 20
204.4939195547
 30
0.0
 11
322.5095067494
 21
204.4939195547
 31
0.0
  0
LINE
  5
4E6
330
1F
100
AcDbEntity
  8
0
  6
Continuous
 62
     8
370
    25
100
AcDbLine
 10
316.0237111472
 20
210.9797151569
 30
0.0
 11
316.0237111472
 21
209.0025266442
 31
0.0
  0
LINE
  5
4E7
330
1F
100
AcDbEntity
  8
0
  6
Continuous
 62
     8
370
    25
100
AcDbLine
 10
277.6318043791
 20
151.6369415257
 30
0.0
 11
277.6318043791
 21
151.629528198
 31
0.0
  0
LINE
  5
4E8
330
1F
100
AcDbEntity
  8
0
  6
Continuous
 62
     8
370
    25
100
AcDbLine
 10
263.1593197905
 20
166.1020127866
 30
0.0
 11
263.1667331182
 21
166.1020127866
 31
0.0
  0
OLE2FRAME
  5
4E9
330
1F
100
AcDbEntity
  8
0
100
AcDbOle2Frame
 70
     2
  3
Unknown
 10
327.7764699578
 20
51.227283274
 30
0.0
 11
380.2560142974
 21
32.484588867
 31
0.0
 72
     0
 73
     1
 90
    32896
310
8055C030C36B6C7C744052754A9E179D49400000000000000000E5A972A218C4
310
774052754A9E179D49400000000000000000E5A972A218C477409FF60B02073E
310
40400000000000000000C030C36B6C7C74409FF60B02073E4040000000000000
310
0000000000000100000000010000010000000100000000000100000000800000
310
D0CF11E0A1B11AE1000000000000000000000000000000003E000300FEFF0900
310
0600000000000000000000000100000001000000000000000010000002000000
310
01000000FEFFFFFF0000000000000000FFFFFFFFFFFFFFFFFFFFFFFFFFFFFFFF
310
FFFFFFFFFFFFFFFFFFFFFFFFFFFFFFFFFFFFFFFFFFFFFFFFFFFFFFFFFFFFFFFF
310
FFFFFFFFFFFFFFFFFFFFFFFFFFFFFFFFFFFFFFFFFFFFFFFFFFFFFFFFFFFFFFFF
310
FFFFFFFFFFFFFFFFFFFFFFFFFFFFFFFFFFFFFFFFFFFFFFFFFFFFFFFFFFFFFFFF
310
FFFFFFFFFFFFFFFFFFFFFFFFFFFFFFFFFFFFFFFFFFFFFFFFFFFFFFFFFFFFFFFF
310
FFFFFFFFFFFFFFFFFFFFFFFFFFFFFFFFFFFFFFFFFFFFFFFFFFFFFFFFFFFFFFFF
310
FFFFFFFFFFFFFFFFFFFFFFFFFFFFFFFFFFFFFFFFFFFFFFFFFFFFFFFFFFFFFFFF
310
FFFFFFFFFFFFFFFFFFFFFFFFFFFFFFFFFFFFFFFFFFFFFFFFFFFFFFFFFFFFFFFF
310
FFFFFFFFFFFFFFFFFFFFFFFFFFFFFFFFFFFFFFFFFFFFFFFFFFFFFFFFFFFFFFFF
310
FFFFFFFFFFFFFFFFFFFFFFFFFFFFFFFFFFFFFFFFFFFFFFFFFFFFFFFFFFFFFFFF
310
FFFFFFFFFFFFFFFFFFFFFFFFFFFFFFFFFFFFFFFFFFFFFFFFFFFFFFFFFFFFFFFF
310
FFFFFFFFFFFFFFFFFFFFFFFFFFFFFFFFFFFFFFFFFFFFFFFFFFFFFFFFFFFFFFFF
310
FFFFFFFFFFFFFFFFFFFFFFFFFFFFFFFFFFFFFFFFFFFFFFFFFFFFFFFFFFFFFFFF
310
FFFFFFFFFFFFFFFFFFFFFFFFFFFFFFFFFFFFFFFFFFFFFFFFFFFFFFFFFFFFFFFF
310
FDFFFFFF17000000FEFFFFFF3E00000005000000060000000700000008000000
310
090000000A0000000B0000000C0000000D0000000E0000000F00000010000000
310
110000001200000013000000140000001500000016000000FEFFFFFF18000000
310
FEFFFFFF1A0000001B0000001C0000001D0000001E0000001F00000020000000
310
2100000022000000230000002400000025000000260000002700000028000000
310
290000002A0000002B0000002C0000002D0000002E0000002F00000030000000
310
3100000032000000330000003400000035000000360000003700000038000000
310
390000003A0000003B0000003C0000003D000000FEFFFFFFFEFFFFFFFFFFFFFF
310
FFFFFFFFFFFFFFFFFFFFFFFFFFFFFFFFFFFFFFFFFFFFFFFFFFFFFFFFFFFFFFFF
310
FFFFFFFFFFFFFFFFFFFFFFFFFFFFFFFFFFFFFFFFFFFFFFFFFFFFFFFFFFFFFFFF
310
FFFFFFFFFFFFFFFFFFFFFFFFFFFFFFFFFFFFFFFFFFFFFFFFFFFFFFFFFFFFFFFF
310
FFFFFFFFFFFFFFFFFFFFFFFFFFFFFFFFFFFFFFFFFFFFFFFFFFFFFFFFFFFFFFFF
310
FFFFFFFFFFFFFFFFFFFFFFFFFFFFFFFFFFFFFFFFFFFFFFFFFFFFFFFFFFFFFFFF
310
FFFFFFFFFFFFFFFFFFFFFFFFFFFFFFFFFFFFFFFFFFFFFFFFFFFFFFFFFFFFFFFF
310
FFFFFFFFFFFFFFFFFFFFFFFFFFFFFFFFFFFFFFFFFFFFFFFFFFFFFFFFFFFFFFFF
310
FFFFFFFFFFFFFFFFFFFFFFFFFFFFFFFFFFFFFFFFFFFFFFFFFFFFFFFFFFFFFFFF
310
52006F006F007400200045006E00740072007900000000000000000000000000
310
0000000000000000000000000000000000000000000000000000000000000000
310
16000500FFFFFFFFFFFFFFFF02000000713BEF84F4DC344CA2EAA1C6042FBE39
310
0000000000000000000000005053696440D7D401030000000003000000000000
310
01004F006C006500000000000000000000000000000000000000000000000000
310
0000000000000000000000000000000000000000000000000000000000000000
310
0A000201FFFFFFFFFFFFFFFFFFFFFFFF00000000000000000000000000000000
310
0000000000000000000000000000000000000000000000001400000000000000
310
02004F006C006500500072006500730030003000300000000000000000000000
310
0000000000000000000000000000000000000000000000000000000000000000
310
180002010100000005000000FFFFFFFF00000000000000000000000000000000
310
0000000000000000000000000000000000000000040000008424000000000000
310
44005200410057004200490054004D0041005000530000000000000000000000
310
0000000000000000000000000000000000000000000000000000000000000000
310
18000101FFFFFFFFFFFFFFFF0400000000000000000000000000000000000000
310
000000005053696440D7D4015053696440D7D401000000000000000000000000
310
FEFFFFFFFEFFFFFFFEFFFFFFFEFFFFFF05000000060000000700000008000000
310
090000000A0000000B000000FEFFFFFFFFFFFFFFFFFFFFFFFFFFFFFFFFFFFFFF
310
FFFFFFFFFFFFFFFFFFFFFFFFFFFFFFFFFFFFFFFFFFFFFFFFFFFFFFFFFFFFFFFF
310
FFFFFFFFFFFFFFFFFFFFFFFFFFFFFFFFFFFFFFFFFFFFFFFFFFFFFFFFFFFFFFFF
310
FFFFFFFFFFFFFFFFFFFFFFFFFFFFFFFFFFFFFFFFFFFFFFFFFFFFFFFFFFFFFFFF
310
FFFFFFFFFFFFFFFFFFFFFFFFFFFFFFFFFFFFFFFFFFFFFFFFFFFFFFFFFFFFFFFF
310
FFFFFFFFFFFFFFFFFFFFFFFFFFFFFFFFFFFFFFFFFFFFFFFFFFFFFFFFFFFFFFFF
310
FFFFFFFFFFFFFFFFFFFFFFFFFFFFFFFFFFFFFFFFFFFFFFFFFFFFFFFFFFFFFFFF
310
FFFFFFFFFFFFFFFFFFFFFFFFFFFFFFFFFFFFFFFFFFFFFFFFFFFFFFFFFFFFFFFF
310
FFFFFFFFFFFFFFFFFFFFFFFFFFFFFFFFFFFFFFFFFFFFFFFFFFFFFFFFFFFFFFFF
310
FFFFFFFFFFFFFFFFFFFFFFFFFFFFFFFFFFFFFFFFFFFFFFFFFFFFFFFFFFFFFFFF
310
FFFFFFFFFFFFFFFFFFFFFFFFFFFFFFFFFFFFFFFFFFFFFFFFFFFFFFFFFFFFFFFF
310
FFFFFFFFFFFFFFFFFFFFFFFFFFFFFFFFFFFFFFFFFFFFFFFFFFFFFFFFFFFFFFFF
310
FFFFFFFFFFFFFFFFFFFFFFFFFFFFFFFFFFFFFFFFFFFFFFFFFFFFFFFFFFFFFFFF
310
FFFFFFFFFFFFFFFFFFFFFFFFFFFFFFFFFFFFFFFFFFFFFFFFFFFFFFFFFFFFFFFF
310
FFFFFFFFFFFFFFFFFFFFFFFFFFFFFFFFFFFFFFFFFFFFFFFFFFFFFFFFFFFFFFFF
310
0100000200000000000000000000000000000000000000000000000000000000
310
0000000000000000000000000000000000000000000000000000000000000000
310
0000000000000000000000000000000000000000000000000000000000000000
310
0000000000000000000000000000000000000000000000000000000000000000
310
0000000000000000000000000000000000000000000000000000000000000000
310
0000000000000000000000000000000000000000000000000000000000000000
310
0000000000000000000000000000000000000000000000000000000000000000
310
0000000000000000000000000000000000000000000000000000000000000000
310
FEFF000005010200E0859FF2F94F6810AB9108002B27B3D901000000E0859FF2
310
F94F6810AB9108002B27B3D930000000B10100001600000001000000B8000000
310
02000000C000000003000000CC00000004000000D800000005000000E4000000
310
06000000F000000007000000FC00000008000000180100000900000024010000
310
0A000000300100000B0000003C0100000D000000480100000C00000054010000
310
0E000000600100000F0000006801000010000000700100001200000078010000
310
0200008084010000140000008C0100001500000094010000160000009C010000
310
00000000A401000002000000E70400001F00000001000000000000001F000000
310
FFFFFFFF030000000400000001000000FFFFFFFF0200000000000000780F0000
310
6F05000042240000010009000003211200000400150400000000040000000301
310
0800050000000B0200000000050000000C020100010004000000030108000500
310
00000B0200000000050000000C0201000100050000000C02A400D40105000000
310
0B02000000000500000006010100000007000000FC020000626F770000000400
310
00002D01000008000000FA0205000100000000000000040000002D0101000500
310
000006010200000007000000FC020000626F77000000040000002D0102000400
310
00002D010100050000000601020000001504000038051B000C0006000C000600
310
0E0005000E000E0006000E0005000C002B002B000C0005000C000C0043004300
310
43000C000C0006000C0005000C007E017C008601750085017600840177008301
310
790082017A0080017B007F017C007E017C007E017D007E017C007E017C008001
310
0A0085010700860175007E017C007D010F0080010A00850107007D010F007D01
310
0E007E010D007F010B0081010A00820108008401070084010700840107008501
310
070085010700470145004A01400080010A0082010C004B014200470145004A01
310
40004B0142004A01430048014400480145004701450047014500470145004701
310
4500470144004701440047014300480142004A014000180107004E013D004701
310
450010010F00180107001801070010010F0010010E0010010E0010010D001101
310
0D0012010C0013010A0015010900160107001701070017010700180107001801
310
07000C017B001301740013017400130174001301750013017500120177001001
310
78000F017A000D017B000D017B000C017B000C017B000C017B00DA004A00DA00
310
4A00130174000C017B00D3005200DA004A00DA004A00D3005200D3005100D300
310
5100D3005100D3005000D4004F00D6004D00D7004C00D9004B00D9004A00DA00
310
4A00DA004A00DA004A00E0005200D3005200DA004A00E8004A00E0005200E000
310
5200E8004A00E8004A00E8004A00E8004B00E8004B00E7004C00E5004E00E400
310
4F00E2005100E1005100E0005200020130000A01290009012A0009012C000901
310
2E0009013000080133000701360005013A0003013D0000014100FC004500F800
310
4900F5004B00F1004D00EE004F00EB005000E7005100E5005100E4005200E200
310
5200E0005200E8004A00E9004A00EB004A00EC004900EE004900F1004800F400
310
4700F7004600F9004500FA004400FB004300FC004200FD004100FE003F00FF00
310
3C0000013A000101370001013500010133000201320002013000E1000F00E800
310
0700EA000700EB000700ED000700EF000700F2000800F5000900F8000B00FB00
310
0D00FD000F000001110002011300040116000501190007011C0008011F000901
310
22000901240009012500090127000A0129000201300002012E0001012D000101
310
2B000101290000012600FF002300FE002000FC001D00FA001B00F8001800F500
310
1600F3001400F0001300ED001100EA001000E7000F00E6000F00E4000F00E200
310
0F00E1000F00E8000700E1000F00E0000F00E0000E00E0000E00E1000E00E100
310
0C00E3000B00E4000900E6000800E7000700E8000700BB000700E8000700E100
310
0F00B4000F00BB000700BB000700B4000F00B4000F00B4000E00B4000E00B400
310
0E00B5000C00B6000B00B8000900B9000800BA000700BB000700810006007A00
310
0E007A000E007A000E007A000E007A000D007B000C007C000A007E0009007F00
310
08008100070081000600B9003D00B1004500B1004200B0003F00B0003C00B000
310
3A00AF003700AE003500AD003200AC003000AB002D00AA002B00A9002800A700
310
2600A6002400A4002200A2002000A1001E009F001C009D001B009B0019009900
310
18009600160094001500920014008F0013008D0012008A001100880010008500
310
0F0082000F0080000F007D000E007A000E008100060084000600870007008A00
310
07008D0008008F0008009200090094000A0097000B0099000C009C000D009E00
310
0E00A0001000A2001100A4001300A6001500A8001700AA001800AC001A00AE00
310
1C00AF001F00B1002100B2002300B3002600B4002800B5002A00B6002D00B700
310
3000B7003200B8003500B8003800B8003B00B9003D007A007C00810074008400
310
7400870073008A0073008C0073008F0072009100710094007100960070009800
310
6F009B006D009D006C009F006B00A0006A00A2006900A3006800A4006700A500
310
6600A6006500A7006300A8006200A9006000AA005E00AB005C00AC005900AD00
310
5700AE005500AF005200B0004F00B0004D00B0004A00B1004700B1004500B900
310
3D00B8004000B8004300B8004600B7004900B7004B00B6004E00B5005100B400
310
5300B3005600B2005800B0005B00AE005D00AD006000AA006300A8006600A500
310
6800A2006B00A0006E009D0070009A0072009800730095007500930076009000
310
77008D0078008B00790088007A0085007A0083007B0080007B007D007C007A00
310
7C00430045004B003D004B0040004B0043004C0046004C0048004D004B004D00
310
4D004E0050004F00520050005500510057005300590054005C0056005E005700
310
6000590062005B0064005D0066005F0067006100690063006A0065006C006700
310
6D006A006E006C006F006F007000710071007400720076007300790073007C00
310
73007F007400810074007A007C0077007C0075007B0072007B006F007A006C00
310
7A006A007900670078006500770062007600600075005E0074005B0072005900
310
710057006F0055006D0053006B0051006A00500068004E0065004C0063004B00
310
61004A005F0048005C0047005A00460058004600550045005200440050004400
310
4D0043004A0043004700430045004B003D004300450043004400440042004500
310
410047003F0048003E004A003D004A003D004B003D004B003D004B003D000E00
310
7C00160074001600750015007600140078001200790010007B000F007C000F00
310
7C000E007C000E007C000E007C001600070016000700160074000E007C000E00
310
0F0016000700160007000E000F000E000E000F000C0010000B00120009001400
310
0800150007001500070016000700160007001600070060000F000E000F001600
310
07006800070060000F0060000F00680007006800070068000700680008006800
310
08006700090066000B0064000C0063000E0061000F0060000F00040000002D01
310
0100040000002D01000004000000F00102000500000006010100000007000000
310
FC020000FFFFFF000000040000002D01020008000000FA020000000000000000
310
0000040000002D01030004000000F001000007000000FC020000E37123000000
310
040000002D010000040000002D010100050000000601010000000C0000002403
310
04000500250037003F0005005A0005002500040000002D010300040000002D01
310
020004000000F001000007000000FC020000FFFFFF000000040000002D010000
310
040000002D010100050000000601010000001400000024030800D2007800D200
310
7700BF008E00B6009A00B3009F00B200A000B3007700D2007800040000002D01
310
0300040000002D01020004000000F00100000500000006010200000007000000
310
FC020000626F77000000040000002D010000040000002D010100050000000601
310
0200000042000000380502000C0012000F008C0011008C0012008C0013008B00
310
14008A0014008900140088001300870012008700110087000F0087000F008C00
310
0F0094000D0094000D0084001100840012008500130085001400850014008500
310
1500860016008700160088001600890016008B0015008D0013008E0011008E00
310
0F008E000F009400040000002D010300040000002D01020004000000F0010000
310
050000000601010000000500000006010200000007000000FC020000626F7700
310
0000040000002D010000040000002D010100050000000601020000003E000000
310
380502000C0010001C008D001D008D001F008C0021008C0022008B0022008A00
310
2200880021008700200087001E0087001C0087001C008D001C0094001A009400
310
1A0084001E00840021008500230086002400870024008A0024008B0023008D00
310
22008E0020008E0024009400210094001C008D001C009400040000002D010300
310
040000002D01020004000000F001000005000000060101000000050000000601
310
0200000007000000FC020000626F77000000040000002D010000040000002D01
310
01000500000006010200000082000000380502001D0021002A008C002A008D00
310
2A008F002B0090002B0090002C0091002D0092002E0092002F00920032009200
310
3300910035008F0035008C0035008B0035008A00340089003300880033008700
310
32008700300087002F0086002E0087002D0087002C0087002B0088002B008900
310
2A008A002A008B002A008C0027008C0027008B0028008900290088002A008600
310
2B0085002C0085002E0084002F00840031008400320085003400850035008600
310
360088003700890037008B0037008C0037008E0037008F003600910035009200
310
3400930033009400310094002F0095002E0094002C0094002B00930029009200
310
2800910028008F0027008E0027008C00040000002D010300040000002D010200
310
04000000F0010000050000000601010000000500000006010200000007000000
310
FC020000626F77000000040000002D010000040000002D010100050000000601
310
020000003E000000380502000C0010003D009200400092004200920044009100
310
45008F0046008C0045008A0044008800420087003F0087003D0087003D009200
310
3F0094003B0094003B0084004000840043008500460087004700890048008C00
310
48008E004700900046009200450093004400930042009400410094003F009400
310
040000002D010300040000002D01020004000000F00100000500000006010100
310
00000500000006010200000007000000FC020000626F77000000040000002D01
310
0000040000002D010100050000000601020000004200000024031F004B008400
310
4E0084004E008E004E0090004E0091004F009200500092005200920053009100
310
5300900053008E00530084005500840055008E00550090005500910055009200
310
55009200540093005300940052009400510095004F0094004E0094004D009300
310
4C0092004C0092004C0091004B0090004B008E004B008400040000002D010300
310
040000002D01020004000000F001000005000000060101000000050000000601
310
0200000007000000FC020000626F77000000040000002D010000040000002D01
310
0100050000000601020000006A00000024033300680090006700920065009300
310
63009400610095005F0094005E0094005C0093005B0092005A00910059008F00
310
59008E0059008C0059008B005A0089005A0088005B0086005D0085005E008500
310
5F00840061008400630084006500850067008700680089006500890064008800
310
630087006200870061008600600087005F0087005E0087005D0088005C008900
310
5C008A005B008B005B008C005B008D005C008F005C0090005D0090005E009100
310
5F00920060009200610092006200920063009200640091006500900068009000
310
040000002D010300040000002D01020004000000F00100000500000006010100
310
00000500000006010200000007000000FC020000626F77000000040000002D01
310
0000040000002D01010005000000060102000000160000002403090070009400
310
6E0094006E0087006B0087006B00840073008400730087007000870070009400
310
040000002D010300040000002D01020004000000F00100000500000006010100
310
00000500000006010200000007000000FC020000626F77000000040000002D01
310
0000040000002D010100050000000601020000003E000000380502000C001000
310
7E00920081009200840092008500910086008F0087008C0086008A0085008800
310
83008700810087007E0087007E009200810094007C0094007C00840081008400
310
84008500870087008900890089008C0089008E00880090008700920086009300
310
85009300840094008200940081009400040000002D010300040000002D010200
310
04000000F0010000050000000601010000000500000006010200000007000000
310
FC020000626F77000000040000002D010000040000002D010100050000000601
310
020000001E00000024030D00950094008D0094008D0084009500840095008700
310
8F0087008F008B0095008B0095008D008F008D008F0092009500920095009400
310
040000002D010300040000002D01020004000000F00100000500000006010100
310
00000500000006010200000007000000FC020000626F77000000040000002D01
310
0000040000002D010100050000000601020000007A00000024033B0099009000
310
9B0090009B0091009B0092009C0092009D0092009E0092009F0092009F009100
310
A0009000A0008F009F008E009E008D009D008D009D008D009D008D009B008C00
310
9A008B0099008B0099008A009900890099008900990087009A0085009C008500
310
9D0084009F008400A0008500A1008700A20088009F0088009F0088009F008700
310
9E0086009D0086009C0086009C0087009B0088009B0089009B0089009B008900
310
9B008A009C008A009C008A009E008B009E008B009F008B00A0008C00A1008D00
310
A2008E00A2008F00A2009200A10093009F0094009D0095009B0094009A009300
310
9900920099009000040000002D010300040000002D01020004000000F0010000
310
050000000601010000000500000006010200000007000000FC020000626F7700
310
0000040000002D010000040000002D010100050000000601020000000E000000
310
24030500A8009400A6009400A6008400A8008400A8009400040000002D010300
310
040000002D01020004000000F001000005000000060101000000050000000601
310
0200000007000000FC020000626F77000000040000002D010000040000002D01
310
0100050000000601020000006E00000024033500B2008C00BB008C00BB009000
310
B9009200B7009400B3009500B2009400B0009400AF009300AD009200AD009100
310
AC008F00AC008E00AB008C00AC008B00AC008900AD008800AE008600AF008500
310
B0008500B2008400B4008400B6008400B8008500B9008700BA008800B8008800
310
B7008800B6008700B5008700B3008600B2008700B1008700B0008700B0008800
310
AF008900AE008A00AE008B00AE008C00AE008D00AE008F00AF009000AF009000
310
B0009100B1009200B2009200B3009200B5009200B7009100B8009000B9008E00
310
B2008E00B2008C00040000002D010300040000002D01020004000000F0010000
310
050000000601010000000500000006010200000007000000FC020000626F7700
310
0000040000002D010000040000002D010100050000000601020000001A000000
310
24030B00C1009400BF009400BF008400C1008400C9009000C9008400CB008400
310
CB009400C9009400C1008800C1009400040000002D010300040000002D010200
310
04000000F0010000050000000601010000000500000006010200000007000000
310
FC020000626F77000000040000002D010000040000002D010100050000000601
310
020000008D0000003805030011000E002400DB008A00DC008A00DC008900DC00
310
8900DD008800DC008700DC008700DC008600DB008600DA008600DA008700D900
310
8700D9008800D9008900DA008900DA008A00DB008A00DE009000DA008D00D900
310
8D00D9008E00D8008F00D8009000D8009100D9009200DA009200DB009200DC00
310
9200DC009200DD009100DE009000DF009100DE009300DD009400DC009400DB00
310
9500D9009400D7009300D6009200D6009000D6008F00D7008D00D8008C00D900
310
8B00D8008B00D8008A00D7008900D7008800D7008700D8008500DA008500DB00
310
8400DC008500DE008500DE008700DF008800DF008900DE008A00DD008B00DC00
310
8C00DF008E00E0008A00E2008A00E0008F00E4009300E3009400DF0091000400
310
00002D010300040000002D01020004000000F001000005000000060101000000
310
0500000006010200000007000000FC020000626F77000000040000002D010000
310
040000002D010100050000000601020000003E000000380502000C001000EF00
310
9200F2009200F5009200F6009100F7008F00F8008C00F7008A00F6008800F400
310
8700F2008700EF008700EF009200F2009400ED009400ED008400F2008400F500
310
8500F8008700FA008900FA008C00FA008E00F9009000F8009200F7009300F600
310
9300F5009400F3009400F2009400040000002D010300040000002D0102000400
310
0000F0010000050000000601010000000500000006010200000007000000FC02
310
0000626F77000000040000002D010000040000002D0101000500000006010200
310
00001E00000024030D0006019400FE009400FE00840006018400060187000001
310
870000018B0006018B0006018D0000018D000001920006019200060194000400
310
00002D010300040000002D01020004000000F001000005000000060101000000
310
0500000006010200000007000000FC020000626F77000000040000002D010000
310
040000002D010100050000000601020000001400000024030800100194000F01
310
9400090184000B0184000F019000140184001601840010019400040000002D01
310
0300040000002D01020004000000F00100000500000006010100000005000000
310
06010200000007000000FC020000626F77000000040000002D01000004000000
310
2D010100050000000601020000001E00000024030D0021019400190194001901
310
840021018400210187001B0187001B018B0021018B0021018D001B018D001B01
310
92002101920021019400040000002D010300040000002D01020004000000F001
310
0000050000000601010000000500000006010200000007000000FC020000626F
310
77000000040000002D010000040000002D010100050000000601020000001200
310
0000240307002D019400250194002501840027018400270192002D0192002D01
310
9400040000002D010300040000002D01020004000000F0010000050000000601
310
010000000500000006010200000007000000FC020000626F7700000004000000
310
2D010000040000002D0101000500000006010200000082000000380502001D00
310
210031018C0031018D0031018F00320190003201900033019100340192003501
310
920036019200390192003B0191003C018F003C018C003C018B003C018A003B01
310
89003B0188003A01870039018700380187003601860035018700340187003301
310
8700330188003201890031018A0031018B0031018C002E018C002F018B002F01
310
8900300188003101860032018500330185003501840036018400380184003A01
310
85003B0185003C0186003D0188003E0189003E018B003F018C003E018E003E01
310
8F003D0191003C0192003B0193003A0194003801940036019500350194003301
310
94003201930031019200300191002F018F002F018E002E018C00040000002D01
310
0300040000002D01020004000000F00100000500000006010100000005000000
310
06010200000007000000FC020000626F77000000040000002D01000004000000
310
2D0101000500000006010200000042000000380502000C00120044018C004601
310
8C0048018C0049018B0049018A00490189004901880049018700480187004601
310
87004401870044018C0044019400420194004201840046018400470185004801
310
8500490185004A0185004A0186004B0187004C0188004C0189004B018B004A01
310
8D0049018E0046018E0044018E0044019400040000002D010300040000002D01
310
020004000000F001000005000000060101000000050000000601020000000700
310
0000FC020000626F77000000040000002D010000040000002D01010005000000
310
0601020000002000000024030E00510194004F0194004F018400530184005701
310
91005C0184005F0184005F0194005D0194005D01870058019400560194005101
310
870051019400040000002D010300040000002D01020004000000F00100000500
310
00000601010000000500000006010200000007000000FC020000626F77000000
310
040000002D010000040000002D010100050000000601020000001E0000002403
310
0D006C01940063019400630184006C0184006C0187006601870066018B006C01
310
8B006C018D0066018D00660192006C0192006C019400040000002D0103000400
310
00002D01020004000000F0010000050000000601010000000500000006010200
310
000007000000FC020000626F77000000040000002D010000040000002D010100
310
050000000601020000001A00000024030B007201940070019400700184007201
310
84007A0190007A0184007C0184007C0194007A01940072018800720194000400
310
00002D010300040000002D01020004000000F001000005000000060101000000
310
0500000006010200000007000000FC020000626F77000000040000002D010000
310
040000002D010100050000000601020000001600000024030900850194008201
310
9400820187007F0187007F018400870184008701870085018700850194000400
310
00002D010300040000002D01020004000000F001000005000000060101000000
310
07000000FC020000E37123000000040000002D010000040000002D0101000500
310
00000601010000000E0000002403050034014E00CE014E00BA01670020016700
310
34014E00040000002D010300040000002D01020004000000F001000007000000
310
FC020000FFFFFF000000040000002D010000040000002D010100050000000601
310
010000001600000024030900CC015000CD015000CD015000CC014E00CB014E00
310
CB014D00CF014D00CF015100CC015000040000002D010300040000002D010200
310
04000000F001000007000000FC020000FFFFFF000000040000002D0100000400
310
00002D0101000500000006010100000016000000240309002201650022016500
310
220165002301670024016700240168001F0168001F0164002201650004000000
310
2D010300040000002D01020004000000F0010000050000000601020000000700
310
0000FC020000FFFFFF000000040000002D010000040000002D01010005000000
310
060102000000460000003805020012000E0048015E004E0157004E0156004D01
310
55004C0154004B0154004B0154004A015400490154003B015400390157003301
310
5E0033015E0031016100400161004601600048015E0048015E00490157004301
310
5E0043015E0042015E0041015F0038015F0038015E0038015F003E0157003E01
310
57003F015600470156004801570049015700040000002D010300040000002D01
310
020004000000F001000005000000060101000000050000000601020000000700
310
0000FC020000FFFFFF000000040000002D010000040000002D01010005000000
310
06010200000046000000240321005A015600680156006A0154005B0154005A01
310
540059015400590154005801540055015500530157004D015E004D015E004D01
310
5F004D015F004D015F004E016000520161006001610062015F0052015F005201
310
5F0052015F0052015F0052015F0054015B0060015B0062015900560159005801
310
570058015700590157005A0156005A015600040000002D010300040000002D01
310
020004000000F001000005000000060101000000050000000601020000000700
310
0000FC020000FFFFFF000000040000002D010000040000002D01010005000000
310
060102000000540000002403280075015F0067015F0064016100740161007901
310
60007C015F007C015F007C015E007E015B007E015B007F015B007F015A007F01
310
5A007E0159007D01590070015900720157007201570073015700730156007401
310
5600810156008301540075015400740154007301540072015400710154006F01
310
55006C0156006A0159006A015A006A015B006A015B006B015B0078015B007601
310
5E0076015E0076015E0075015F00040000002D010300040000002D0102000400
310
0000F0010000050000000601010000000500000006010200000007000000FC02
310
0000FFFFFF000000040000002D010000040000002D0101000500000006010200
310
00001E00000024030D0087015B0087015B0085015E0085015F0085015F008301
310
61007E01610080015E0086015700880154008D0154008B01570087015B000400
310
00002D010300040000002D01020004000000F001000005000000060101000000
310
0500000006010200000007000000FC020000FFFFFF000000040000002D010000
310
040000002D010100050000000601020000005800000024032A009F015E00A101
310
5B00A30159009901590097015C009C015C0099015E0099015E0098015F008F01
310
5F008F015F008E015F008E015F008E015F008E015F008E015F008E015F009501
310
570095015700960157009601560097015600A4015600A7015400980154009701
310
540096015400950154009401540092015500900157008A015E0089015E008901
310
5F0089015F0089015F008B0160008F016100970161009C0160009F015E009F01
310
5E00040000002D010300040000002D01020004000000F0010000050000000601
310
010000000500000006010200000007000000FC020000FFFFFF00000004000000
310
2D010000040000002D0101000500000006010200000046000000380502001A00
310
0600AE015700B7015700B8015700B8015700B8015800B8015800B7015900B101
310
6100B6016100BE015700BE015700BE015700BE015700BE015600BD015500BB01
310
5400AB015400A9015700A3015E00A3015E00A1016100A6016100A8015F00A801
310
5F00A8015F00AE015700A8015E00A8015F00A8015F00A8015E00A8015E00A801
310
5E00040000002D010300040000002D01020004000000F0010000050000000601
310
010000000300000000000000000000000000000000000000000000004E414E49
310
0000000000000000000000000000000000000000000000000000000000000000
310
0000000000000000000000000000000000000000000000000000000000000000
310
0000000000000000000000000000000000000000000000000000000000000000
310
0000000000000000000000000000000000000000000000000000000000000000
310
0000000000000000000000000000000000000000000000000000000000000000
310
0000000000000000000000000000000000000000000000000000000000000000
310
0000000000000000000000000000000000000000000000000000000000000000
310
0000000000000000000000000000000000000000000000000000000000000000
310
0000000000000000000000000000000000000000000000000000000000000000
310
0000000000000000000000000000000000000000000000000000000000000000
310
0000000000000000000000000000000000000000000000000000000000000000
310
0000000000000000000000000000000000000000000000000000000000000000
310
530054005200450041004D0053004C0049005300540000000000000000000000
310
0000000000000000000000000000000000000000000000000000000000000000
310
18000201FFFFFFFFFFFFFFFFFFFFFFFF00000000000000000000000000000000
310
0000000000000000000000000000000000000000010000000400000000000000
310
530054005200450041004D0053004C0049005300540000000000000000000000
310
0000000000000000000000000000000000000000000000000000000000000000
310
180002000300000008000000FFFFFFFF00000000000000000000000000000000
310
0000000000000000000000000000000000000000020000000400000000000000
310
44005200410057005000410054005400450052004E0053000000000000000000
310
0000000000000000000000000000000000000000000000000000000000000000
310
1A000100FFFFFFFFFFFFFFFF0700000000000000000000000000000000000000
310
000000005053696440D7D4015053696440D7D401000000000000000000000000
310
530054005200450041004D0053004C0049005300540000000000000000000000
310
0000000000000000000000000000000000000000000000000000000000000000
310
18000201FFFFFFFFFFFFFFFFFFFFFFFF00000000000000000000000000000000
310
0000000000000000000000000000000000000000030000000400000000000000
310
5600470043006F00720065004400610074006100530074007200650061006D00
310
0000000000000000000000000000000000000000000000000000000000000000
310
220002010600000009000000FFFFFFFF00000000000000000000000000000000
310
0000000000000000000000000000000000000000190000003249000000000000
310
0500530075006D006D0061007200790049006E0066006F0072006D0061007400
310
69006F006E000000000000000000000000000000000000000000000000000000
310
28000200FFFFFFFFFFFFFFFFFFFFFFFF00000000000000000000000000000000
310
000000000000000000000000000000000000000004000000E101000000000000
310
0000000000000000000000000000000000000000000000000000000000000000
310
0000000000000000000000000000000000000000000000000000000000000000
310
00000000FFFFFFFFFFFFFFFFFFFFFFFF00000000000000000000000000000000
310
0000000000000000000000000000000000000000000000000000000000000000
310
0000000000000000000000000000000000000000000000000000000000000000
310
0000000000000000000000000000000000000000000000000000000000000000
310
00000000FFFFFFFFFFFFFFFFFFFFFFFF00000000000000000000000000000000
310
0000000000000000000000000000000000000000000000000000000000000000
310
524946462A490000434452437672736E02000000B0044C4953548E2B0000646F
310
6320706672640200000000006D636667D81F00000000000090512D00200B2000
310
0F00010001000000000000000000000001000000010000000000000000000000
310
A03FB656B03FB656C03FB656D03FB656E03FB656F03FB6560040B6561040B656
310
2040B6563040B6564040B6565040B6566040B6567040B6568040B6569040B656
310
A040B656B040B656C040B656D040B656E040B656F040B6560041B6561041B656
310
2041B6563041B6564041B6565041B6566041B6567041B6568041B6569041B656
310
A041B656B041B656C041B656D041B656E041B656F041B6560042B6561042B656
310
2042B6563042B6564042B6565042B6566042B6567042B6568042B6569042B656
310
A042B656B042B656C042B656D042B656E042B656F042B6560043B6561043B656
310
2043B6563043B6564043B6565043B6566043B6567043B6568043B6569043B656
310
A043B656B043B656C043B656D043B656E043B656F043B6560044B6561044B656
310
2044B6563044B6564044B6565044B6566044B6567044B6568044B6569044B656
310
A044B656B044B656C044B656D044B656E044B656F044B6560045B6561045B656
310
2045B6563045B6564045B6565045B6566045B6567045B6568045B6569045B656
310
A045B656B045B656C045B656D045B656E045B656F045B6560046B6561046B656
310
2046B6563046B6564046B6565046B6566046B6567046B6568046B6569046B656
310
A046B656B046B656C046B656D046B656E046B656F046B6560047B6561047B656
310
2047B6563047B6564047B6565047B6566047B6567047B6568047B6569047B656
310
A047B656B047B656C047B656D047B656E047B656F047B6560048B6561048B656
310
2048B6563048B6564048B6565048B6566048B6567048B6568048B6569048B656
310
A048B656B048B656C048B656D048B656E048B656F048B6560049B6561049B656
310
2049B6563049B6564049B6563857E9FF70FAEFFF0A8542A15028C43F0A8542A1
310
5028C43F0100000000000000000000000000F03F020002000100000000000000
310
D038B400D038B400010000000100000001000000D038B400D038B40001000000
310
0000000000000000000000000500050000000000006400570000000000000000
310
0100000001000000010000000000000003000000A015FFFF40D8F6FFE8030000
310
02000000020000000100000000000000020000009C3100000000000001000000
310
0100000001000000000000000100000000000000000000000000000005000500
310
00000000C400005605000500000000002000C4560500050000000000C400C456
310
43006F00720065006C00440065006600610075006C007400490044005F003100
310
30003900300030000000000000000000000043006F00720065006C0044006500
310
6600610075006C007400490044005F0031003000390030003000000000000000
310
0000000043006F00720065006C00440065006600610075006C00740049004400
310
5F00310030003900300030000000000000000000000000000000000003000000
310
0100000001000000010000000000000001000000000000000000000000000000
310
0000000000000000020000000000000004000000640000000000000000000000
310
01000000010000000500050000000000C1C2C200050005000000000000640056
310
0100000000000000000000000000000000000000000000000000000000000000
310
0000000001000000000000000000000000000000000000000000F03F00000000
310
0000F03F000000000000F03F000000000000F03F02000000000000009A999999
310
9999C93F01000000000000000A8542A15028C43F0A8542A15028C43F04000000
310
0100000000000000010000000000000001000000000000000000000000000000
310
43006F00720065006C005C0057006500620053006900740065005C0000000000
310
0000000000000000000000000000000000000000000000000000000000000000
310
0000000000000000000000000000000000000000000000000000000000000000
310
0000000000000000000000000000000000000000000000000000000000000000
310
0000000000000000000000000000000000000000000000000000000000000000
310
0000000000000000000000000000000000000000000000000000000000000000
310
0000000000000000000000000000000000000000000000000000000000000000
310
0000000000000000000000000000000000000000000000000000000000000000
310
0000000000000000000000000000000000000000000000000000000000000000
310
0000000000000000000000000000000000000000000000000000000000000000
310
0000000000000000000000000000000000000000000000000000000000000000
310
0000000000000000000000000000000000000000000000000000000000000000
310
0000000000000000000000000000000000000000000000000000000000000000
310
0000000000000000000000000000000000000000000000000000000000000000
310
0000000000000000000000000000000000000000000000000000000000000000
310
0000000000000000000000000000000000000000000000000000000000000000
310
0000000000000000000000000000000000000000000000000000000000000000
310
0000000000000000000000000000000000000000000000000000000000000000
310
0000000000000000000000000000000000000000000000000000000000000000
310
0000000000000000000000000000000000000000000000000000000000000000
310
0000000000000000000000000000000000000000000000000000000000000000
310
0000000000000000000000000000000000000000000000000000000000000000
310
0000000000000000000000000000000000000000000000000000000000000000
310
0000000000000000000000000000000000000000000000000000000000000000
310
0000000000000000000000000000000000000000000000000000000000000000
310
0000000000000000000000000000000000000000000000000000000000000000
310
0000000000000000000000000000000000000000000000000000000000000000
310
0000000000000000000000000000000000000000000000000000000000000000
310
0000000000000000000000000000000000000000000000000000000000000000
310
0000000000000000000000000000000000000000000000000000000000000000
310
0000000000000000000000000000000000000000000000000000000000000000
310
0000000000000000000000000000000000000000000000000000000000000000
310
0000000000000000000000000000000000000000000000000000000000000000
310
0000000000000000000000000000000000000000000000000000000000000000
310
0000000000000000000000000000000000000000000000000000000000000000
310
0000000000000000000000000000000000000000000000000000000000000000
310
0000000000000000000000000000000000000000000000000000000000000000
310
0000000000000000000000000000000000000000000000000000000000000000
310
0000000000000000000000000000000000000000000000000000000000000000
310
0000000000000000000000000000000000000000000000000000000000000000
310
0000000000000000000000000000000000000000000000000000000000000000
310
0000000000000000000000000000000000000000000000000000000000000000
310
0000000000000000000000000000000000000000000000000000000000000000
310
0000000000000000000000000000000000000000000000000000000000000000
310
0000000000000000000000000000000000000000000000000000000000000000
310
0000000000000000000000000000000000000000000000000000000000000000
310
0000000000000000000000000000000000000000000000000000000000000000
310
0000000000000000000000000000000000000000000000000000000000000000
310
0000000000000000000000000000000000000000000000000000000000000000
310
0000000000000000000000000000000000000000000000000000000000000000
310
0000000000000000000000000000000000000000000000000000000000000000
310
0000000000000000000000000000000000000000000000000000000000000000
310
0000000000000000000000000000000000000000000000000000000000000000
310
0000000000000000000000000000000000000000000000000000000000000000
310
0000000000000000000000000000000000000000000000000000000000000000
310
0000000000000000000000000000000000000000000000000000000000000000
310
0000000000000000000000000000000000000000000000000000000000000000
310
0000000000000000000000000000000000000000000000000000000000000000
310
0000000000000000000000000000000000000000000000000000000000000000
310
0000000000000000000000000000000000000000000000000000000000000000
310
0000000000000000000000000000000000000000000000000000000000000000
310
0000000000000000000000000000000000000000000000000000000000000000
310
0000000000000000000000000000000000000000000000000000000000000000
310
0000000000000000000000000000000000000000000000000000000000000000
310
0000000000000000000000000000000000000000000000000000000000000000
310
0000000000000000000000000000000000000000000000000000000000000000
310
0000000000000000000000000000000000000000000000000000000000000000
310
0000000000000000000000000000000000000000000000000000000000000000
310
0000000000000000000000000000000000000000000000000000000000000000
310
0000000000000000000000000000000000000000000000000000000000000000
310
0000000000000000000000000000000000000000000000000000000000000000
310
0000000000000000000000000000000000000000000000000000000000000000
310
0000000000000000000000000000000000000000000000000000000000000000
310
0000000000000000000000000000000000000000000000000000000000000000
310
0000000000000000000000000000000000000000000000000000000000000000
310
0000000000000000000000000000000000000000000000000000000000000000
310
0000000000000000000000000000000000000000000000000000000000000000
310
0000000000000000000000000000000000000000000000000000000000000000
310
0000000000000000000000000000000000000000000000000000000000000000
310
0000000000000000000000000000000000000000000000000000000000000000
310
0000000000000000000000000000000000000000000000000000000000000000
310
0000000000000000000000000000000000000000000000000000000000000000
310
0000000000000000000000000000000000000000000000000000000000000000
310
0000000000000000000000000000000000000000000000000000000000000000
310
0000000000000000000000000000000000000000000000000000000000000000
310
0000000000000000000000000000000000000000000000000000000000000000
310
0000000000000000000000000000000000000000000000000000000000000000
310
0000000000000000000000000000000000000000000000000000000000000000
310
0000000000000000000000000000000000000000000000000000000000000000
310
0000000000000000000000000000000000000000000000000000000000000000
310
0000000000000000000000000000000000000000000000000000000000000000
310
0000000000000000000000000000000000000000000000000000000000000000
310
0000000000000000000000000000000000000000000000000000000000000000
310
0000000000000000000000000000000000000000000000000000000000000000
310
0000000000000000000000000000000000000000000000000000000000000000
310
0000000000000000000000000000000000000000000000000000000000000000
310
0000000000000000000000000000000000000000000000000000000000000000
310
0000000000000000000000000000000000000000000000000000000000000000
310
0000000000000000000000000000000000000000000000000000000000000000
310
0000000000000000000000000000000000000000000000000000000000000000
310
0000000000000000000000000000000000000000000000000000000000000000
310
0000000000000000000000000000000000000000000000000000000000000000
310
0000000000000000000000000000000000000000000000000000000000000000
310
0000000000000000000000000000000000000000000000000000000000000000
310
0000000000000000000000000000000000000000000000000000000000000000
310
0000000000000000000000000000000000000000000000000000000000000000
310
0000000000000000000000000000000000000000000000000000000000000000
310
0000000000000000000000000000000000000000000000000000000000000000
310
0000000000000000000000000000000000000000000000000000000000000000
310
0000000000000000000000000000000000000000000000000000000000000000
310
0000000000000000000000000000000000000000000000000000000000000000
310
0000000000000000000000000000000000000000000000000000000000000000
310
0000000000000000000000000000000000000000000000000000000000000000
310
0000000000000000000000000000000000000000000000000000000000000000
310
0000000000000000000000000000000000000000000000000000000000000000
310
0000000000000000000000000000000000000000000000000000000000000000
310
0000000000000000000000000000000000000000000000000000000000000000
310
0000000000000000000000000000000000000000000000000000000000000000
310
0000000000000000000000000000000000000000000000000000000000000000
310
0000000000000000000000000000000000000000000000000000000000000000
310
0000000000000000000000000000000000000000000000000000000000000000
310
0000000000000000000000000000000000000000000000000000000000000000
310
0000000000000000000000000000000000000000000000000000000000000000
310
0000000000000000000000000000000000000000000000000000000000000000
310
0000000000000000000000000000000000000000000000000000000000000000
310
0000000000000000000000000000000000000000000000000000000000000000
310
0000000000000000000000000000000000000000000000000000000000000000
310
0000000000000000000000000000000000000000000000000000000000000000
310
0000000000000000000000000000000000000000000000000000000000000000
310
0000000000000000000000000000000000000000000000000000000000000000
310
0000000000000000000000000000000000000000000000000000000000000000
310
0000000000000000000000000000000000000000000000000000000000000000
310
0000000000000000000000000000000000000000000000000000000000000000
310
0000000000000000000000000000000000000000000000000000000000000000
310
0000000000000000000000000000000000000000000000000000000000000000
310
0000000000000000000000000000000000000000000000000000000000000000
310
0000000000000000000000000000000000000000000000000000000000000000
310
0000000000000000000000000000000000000000000000000000000000000000
310
0000000000000000000000000000000000000000000000000000000000000000
310
0000000000000000000000000000000000000000000000000000000000000000
310
0000000000000000000000000000000000000000000000000000000000000000
310
0000000000000000000000000000000000000000000000000000000000000000
310
0000000000000000000000000000000000000000000000000000000000000000
310
0000000000000000000000000000000000000000000000000000000000000000
310
0000000000000000000000000000000000000000000000000000000000000000
310
0000000000000000000000000000000000000000000000000000000000000000
310
0000000000000000000000000000000000000000000000000000000000000000
310
0000000000000000000000000000000000000000000000000000000000000000
310
0000000000000000000000000000000000000000000000000000000000000000
310
0000000000000000000000000000000000000000000000000000000000000000
310
0000000000000000000000000000000000000000000000000000000000000000
310
0000000000000000000000000000000000000000000000000000000000000000
310
0000000000000000000000000000000000000000000000000000000000000000
310
0000000000000000000000000000000000000000000000000000000000000000
310
0000000000000000000000000000000000000000000000000000000000000000
310
0000000000000000000000000000000000000000000000000000000000000000
310
0000000000000000000000000000000000000000000000000000000000000000
310
0000000000000000000000000000000000000000000000000000000000000000
310
0000000000000000000000000000000000000000000000000000000000000000
310
0000000000000000000000000000000000000000000000000000000000000000
310
0000000000000000000000000000000000000000000000000000000000000000
310
0000000000000000000000000000000000000000000000000000000000000000
310
0000000000000000000000000000000000000000000000000000000000000000
310
0000000000000000000000000000000000000000000000000000000000000000
310
0000000000000000000000000000000000000000000000000000000000000000
310
0000000000000000000000000000000000000000000000000000000000000000
310
0000000000000000000000000000000000000000000000000000000000000000
310
0000000000000000000000000000000000000000000000000000000000000000
310
0000000000000000000000000000000000000000000000000000000000000000
310
0000000000000000000000000000000000000000000000000000000000000000
310
0000000000000000000000000000000000000000000000000000000000000000
310
0000000000000000000000000000000000000000000000000000000000000000
310
0000000000000000000000000000000000000000000000000000000000000000
310
0000000000000000000000000000000000000000000000000000000000000000
310
0000000000000000000000000000000000000000000000000000000000000000
310
0000000000000000000000000000000000000000000000000000000000000000
310
0000000000000000000000000000000000000000000000000000000000000000
310
0000000000000000000000000000000000000000000000000000000000000000
310
0000000000000000000000000000000000000000000000000000000000000000
310
0000000000000000000000000000000000000000000000000000000000000000
310
0000000000000000000000000000000000000000000000000000000000000000
310
0000000000000000000000000000000000000000000000000000000000000000
310
0000000000000000000000000000000000000000000000000000000000000000
310
0000000000000000000000000000000000000000000000000000000000000000
310
0000000000000000000000000000000000000000000000000000000000000000
310
0000000000000000000000000000000000000000000000000000000000000000
310
0000000000000000000000000000000000000000000000000000000000000000
310
0000000000000000000000000000000000000000000000000000000000000000
310
0000000000000000000000000000000000000000000000000000000000000000
310
0000000000000000000000000000000000000000000000000000000000000000
310
0000000000000000000000000000000000000000000000000000000000000000
310
0000000000000000000000000000000000000000000000000000000000000000
310
0000000000000000000000000000000000000000000000000000000000000000
310
0000000000000000000000000000000000000000000000000000000000000000
310
0000000000000000000000000000000000000000000000000000000000000000
310
0000000000000000000028400100000001000000010000000000000000000000
310
0000F03F000000000000F03F000000000000F03F8066AB13804A5D058058840C
310
490073006F006D00650074007200690063000000000000000000000000000000
310
0000000000000000000000000000000000000000000000000000000000000000
310
0000000000000000000000000000000000000000000000000000000000000000
310
0000000000000000000000000000000000000000000000000000000000000000
310
0000000000000000000000000000000000000000000000000000000000000000
310
0000000000000000000000000000000000000000000000000000000000000000
310
0000000000000000000000000000000000000000000000000000000000000000
310
0000000000000000000000000000000000000000000000000000000000000000
310
0000000000000000000000000000000000000000000000000000000000000000
310
0000000000000000000000000000000000000000000000000000000000000000
310
0000000000000000000000000000000000000000000000000000000000000000
310
0000000000000000000000000000000000000000000000000000000000000000
310
0000000000000000000000000000000000000000000000000000000000000000
310
0000000000000000000000000000000000000000000000000000000000000000
310
0000000000000000000000000000000000000000000000000000000000000000
310
0000000000000000000000000000000000000000000000000000000000000000
310
00000000000000000000000070747274100000009823EFFF80FC0A0098E00E00
310
8074F7FF4C49535460030000666E7474666F6E74A40000008B00000040000000
310
020B06020202020202044100760061006E007400470061007200640065002000
310
4D00640020004200540000000000000000000000000000000000000000000000
310
000000000000000000000000000000005700650073007400650072006E000000
310
0000000000000000000000000000000000000000000000000000000000000000
310
00000000000000000000000000000000000000000100000002000000666F6E74
310
A40000003E008800400000000101010101010101010141007200690061006C00
310
200055006E00690063006F006400650020004D00530000000000000000000000
310
0000000000000000000000000000000000000000000000000000880043004800
310
49004E004500530045005F004200490047003500000000000000000000000000
310
0000000000000000000000000000000000000000000000000000000000000000
310
0000000002000000666F6E74A40000000200B20040000000020B060402020202
310
020441007200690061006C000000000000000000000000000000000000000000
310
0000000000000000000000000000000000000000000000000000000000000000
310
000000000000B200410072006100620069006300000000000000000000000000
310
0000000000000000000000000000000000000000000000000000000000000000
310
0000000000000000000000000000000002000000666F6E74A40000008A000000
310
40000000020B04020202020202044100760061006E0074004700610072006400
310
6500200042006B00200042005400000000000000000000000000000000000000
310
0000000000000000000000000000000000000000570065007300740065007200
310
6E00000000000000000000000000000000000000000000000000000000000000
310
0000000000000000000000000000000000000000000000000000000002000000
310
666F6E74A4000000B1000000001000000101010101010101010143006F006E00
310
6300690065006C00690061006E00200042006F006C0064000000000000000000
310
0000000000000000000000000000000000000000000000000000000000000000
310
5700650073007400650072006E00000000000000000000000000000000000000
310
0000000000000000000000000000000000000000000000000000000000000000
310
0000000001000000020000004C4953541C01000066696C744C49535430000000
310
66696C6366696C6424000000E86F4C0801000000020005000000000000000064
310
0000917C0000000040A5AE023C0000004C4953541400000066696C6366696C64
310
08000000F0DC4D08000000004C4953543000000066696C6366696C6424000000
310
483E5A0801000000020005000000000000000000000000000000000040A5AE02
310
3C0000004C4953543000000066696C6366696C6424000000683E5A0801000000
310
190024000000000020026400000058510000000040A5AE023C0000004C495354
310
1400000066696C6366696C6408000000883E5A08000077774C49535430000000
310
66696C6366696C6424000000A83E5A080100000019002400000000005F006400
310
000055550000000040A5AE023C0000004C495354E80200006F746C746F75746C
310
8C00000048C44D080200010001000000FA020000640000000000000000000000
310
000000000000F03F000000000000000000000000000000000000000000000000
310
000000000000F03F000000000000000002000500000000000000006400000000
310
0000000040A5AE023C0000000000000000000000000000000000000000000000
310
000000000000000000000000000000006F75746C8C0000005071410102000000
310
00000000FA020000640000000000000000000000000000000000F03F00000000
310
0000000000000000000000000000000000000000000000000000F03F00000000
310
00000000020005000000000000000064000000000000000040A5AE023C000000
310
0000000000000000000000000000000000000000000000000000000000000000
310
000000006F75746C8C000000588F4D082200010001000000714F000014000000
310
C05A51FD00000000000000000000F03F00000000000000000000000000000000
310
0000000000000000000000000000F03F00000000000000001900240000000000
310
20026400000000000000000040A5AE023C000000000000000000000000000000
310
0000000000000000000000000000000000000000000000006F75746C8C000000
310
A8413F010100000000000000FA02000064000000000000000000000000000000
310
0000F03F00000000000000000000000000000000000000000000000000000000
310
0000F03F00000000000000000200050000000000000000640000000000000000
310
40A5AE023C000000000000000000000000000000000000000000000000000000
310
0000000000000000000000006F75746C8C000000E8944C080100010001000000
310
FA020000640000000000000000000000000000000000F03F0000000000000000
310
00000000000000000000000000000000000000000000F03F0000000000000000
310
020005000000000000000064000000000000000040A5AE023C00000000000000
310
0000000000000000000000000000000000000000000000000000000000000000
310
4C495354F803000073746C740800000005000000209F540800000000E86F4C08
310
409F540800000000F0DC4D08B0994C0800000000683E5A08083F5A0800000000
310
483E5A08D0994C0800000000883E5A0803000000609F540800000000A8413F01
310
D09F54080000000050714101709A4C080000000048C44D0803000000F8594C08
310
00000000FFFF0000FFFF0000FFFF0000010000008A0000003E0088000200B200
310
BB4A0100BB4A0100BB4A0100400000004000000040000000F8CE4C0800000000
310
FFFF0000FFFF0000FFFF000001000000B10000003E0088000200B200B34E0000
310
B34E0000B34E000000100000400000004000000048CF4C0800000000FFFF0000
310
FFFF0000FFFF0000010000008B0000003E0088000200B2005649000094610000
310
9461000040000000400000004000000002000000485A4C080000000000000000
310
88D04C08000000000500000002000000685B4C0800000000FFFF000000000000
310
0000000040420F0040420F0040420F000000000080841E00C0270900C0C62D00
310
0000000040D14C0800000000FFFF000090D003000000000040420F0040420F00
310
40420F000000000080841E00C0270900C0C62D000000000001000000B05C4C08
310
0000000000000000E39CFEFF8FB1000000000000E39CFEFF1D63010000000000
310
E39CFEFF8FB1000000000000C539FDFF8FB10000000000008FE60C008FB10000
310
00000000563F0D001D6301000000000000350C008FB10000000000001E980D00
310
8FB1000000000000151605008FB1000000000000DC6E05001D63010000000000
310
A4C705008FB1000000000000866404008FB10000000000000000000000000000
310
00000000000000000100000050775708000000000100000002000000A0A04D08
310
0000000001000000010000001300000043006F00720065006C00440065006600
310
610075006C007400490044005F003500300030003600209F5408609F5408F859
310
4C08485A4C08685B4C08B05C4C08507757080100000008DB4C08000000000100
310
0000010000001300000043006F00720065006C00440065006600610075006C00
310
7400490044005F003500300030003800409F5408D09F540802000000F8A44D08
310
A0A04D08000000000000000000000000083F5A08609F5408F8CE4C08485A4C08
310
40D14C08B05C4C08507757080100000040A54D0808DB4C080000000000000000
310
00000000409F5408709A4C080200000070A54D08A0A04D080000000000000000
310
00000000B0994C08609F540848CF4C0888D04C0840D14C08B05C4C0850775708
310
01000000F0A64D0808DB4C08000000000000000000000000D0994C08709A4C08
310
0100000020A74D0808DB4C08000000000000000000000000409F5408709A4C08
310
0100000050A74D0808DB4C08000000000000000000000000409F5408709A4C08
310
4C4953540400000075696C204C495354F402000070616765666C677304000000
310
4000019062626F781000000040D75FF2C028A00DC028A00D40D75FF26F626278
310
2000000040D75FF2C028A00DC028A00D40D75FF240D75FF2C028A00DC028A00D
310
40D75FF24C49535464020000676F626A4C495354720000006C617972666C6773
310
040000000A0001984C4953545A0000006C676F626C6F64614E0000004E000000
310
0300000014000000240000000C0000003000000034000000400000004E000000
310
E8030000D0070000E02E0000000000000500050000000000C1C2C20047007500
310
690064006500730000004C495354740000006C617972666C6773040000000800
310
01984C4953545C0000006C676F626C6F64615000000050000000030000001400
310
0000240000001100000030000000340000004000000050000000E8030000D007
310
0000E02E0000000000000200050000000000000000644400650073006B007400
310
6F00700000004C495354700000006C617972666C677304000000000000984C49
310
5354580000006C676F626C6F64614C0000004C00000003000000140000002400
310
0000000000003000000034000000400000004C000000E8030000D0070000E02E
310
000000000000020005000000000000000064430072006F007000730000004C49
310
5354740000006C617972666C677304000000000000984C4953545C0000006C67
310
6F626C6F64615000000050000000030000001400000024000000000000003000
310
0000340000004000000050000000E8030000D0070000E02E0000000000000200
310
050000000000000000644C0061007900650072002000310000004C4953546E00
310
00006C617972666C6773040000005A0101984C495354560000006C676F626C6F
310
64614A0000004A0000000300000014000000240000000B000000300000003400
310
0000400000004A000000E8030000D0070000E02E000000000000050005000000
310
0000C1C2C200470072006900640000004C495354300000006C676F626C6F6461
310
240000002400000001000000140000001C000000000000002000000024000000
310
E02E0000000000004C4953543E1A000070616765666C67730400000040000090
310
62626F78100000009823EFFF80FC0A0098E00E008074F7FF6F62627820000000
310
9823EFFF80FC0A0098E00E008074F7FF9823EFFF80FC0A0098E00E008074F7FF
310
4C4953542E190000676F626A4C495354720000006C617972666C677304000000
310
0A0001984C4953545A0000006C676F626C6F64614E0000004E00000003000000
310
14000000240000000C0000003000000034000000400000004E000000E8030000
310
D0070000E02E0000000000000500050000000000C1C2C2004700750069006400
310
6500730000004C495354740000006C617972666C677304000000080001984C49
310
53545C0000006C676F626C6F6461500000005000000003000000140000002400
310
00001100000030000000340000004000000050000000E8030000D0070000E02E
310
0000000000000200050000000000000000644400650073006B0074006F007000
310
00004C4953545C0000006C617972666C677304000000000000984C4953544400
310
00006C676F626C6F646138000000380000000200000014000000200000000000
310
0000280000002C00000038000000D0070000E02E000000000000020005000000
310
0000000000644C495354521700006C617972666C677304000000000000984C49
310
53545C0000006C676F626C6F6461500000005000000003000000140000002400
310
00000000000030000000340000004000000050000000E8030000D0070000E02E
310
0000000000000200050000000000000000644C00610079006500720020003100
310
00004C4953547C0400006F626A2073706E6404000000D8D35608666C67730400
310
0000000A000962626F7810000000757AF5FFCF720700FA4CF7FF504807006F62
310
627820000000757AF5FFCF720700FA4CF7FF50480700757AF5FFCF720700FA4C
310
F7FF504807007573646E040000009A0600004C495354380100006C676F626C6F
310
6461900000009000000009000000140000003C00000004000000600000006C00
310
00007000000074000000780000007C00000080000000880000008C0000009000
310
00000A000000140000001E00000064000000C8000000E02E0000FE2E00008F3E
310
0000E24A0000010000000100000000000000010000000000000000000000F8A4
310
4D08D8D456080000000058D55608483E5A08A8413F016674696C300000000000
310
00000000F03F0000000000000000000000000000000000000000000000000000
310
00000000F03F00000000000000004C4953545C0000007472666C747266645000
310
0000500000000100000010000000FFFF000018000000500000000800277C28DE
310
257C000000E01336F13F000000000000000000000000E87C21C1000000000000
310
0000000000000000F03F00000000E0211D417478736DB4000000FFFFFFFFFFFF
310
FFFF00000000FFFFFFFF08000000060000000000000003000000000000000100
310
0000D8D35608000000E01336F13F000000000000000000000000E87C21C10000
310
000000000000000000000000F03F00000000E0211D410000000001000000F8A4
310
4D08000100000007000008555300000600000000000000000000000000000000
310
0000000000000000000000000000000000000000000000000000000000000000
310
0000000600000044455349474E007478746A10020000A0E11200A73F54770100
310
000000000000D007330A782B330AC4E11200CF485477010000004E3300000000
310
000000000000000000004807330AA833330AE0E11200D02B54774D3300000000
310
0000E0E21200010000005CE2120004E21200C32D54774D33000000000000E0E2
310
12004B085477D02D547754E21200A9D15277D6D052770000290A000000002CE2
310
1200BBD1527700000000000000008CE21200B435330A001000000000000048E2
310
1200CDDC5277D82A330A01000000FEFFFFFF8CE2120068E21200B1DD52770000
310
0000010000008CE2120000000000B435330A0010000080E21200000000000400
310
00000010000088E2120022DF527700000000B435330AA0E21200A73F54770100
310
000000000000D007330A782B330AC4E21200CF48547701000000563300000000
310
000000000000000000004807330AA833330AE0E21200D02B54774E3300000000
310
0000A8E31200080000005CE3120004E31200FFD052770000290A08E312005DD0
310
527788631D0050E31200A9D15277D6D052770000290A000000002CE31200BBD1
310
52770000000000000000B82553777CE3120060DD4E7700D3560800010380A03C
310
330A0000000000000000883B330AA03C330A0100000074E3120074EC327C0100
310
0000089BB257000000000000000000000000010000007CE3120068E61200D4E3
310
1200A8F9DB56B89E16005633000000000000E8E31200C8BFC7570000000052C6
310
B45768E612004C495354D006000067727020666C677304000000000800106262
310
6F78100000008040F5FFE68B0700F086F7FF382F07006F626278200000008040
310
F5FFE68B0700F086F7FF382F07008040F5FFE68B0700F086F7FF382F07007573
310
646E040000009B0600004C495354B40000006C676F626C6F6461440000004400
310
000003000000140000002400000000000000300000003C000000400000004400
310
000064000000E02E0000E24A000001000000010000000000000000000000E0AA
310
5A084C4953545C0000007472666C747266645000000050000000010000001000
310
0000FFFF0000180000005000000008000000CA0502002A76BA484B93DF3F0000
310
000000000000480D5E9FD02EFC4000000000000000000BC2B5153C22DF3F00EE
310
D12DCF21AEC04C495354000200006F626A20666C677304000000000200086262
310
6F78100000008040F5FFC53C0700FA4FF5FF382F07006F626278200000008040
310
F5FFC53C0700FA4FF5FF382F07008040F5FFC53C0700FA4FF5FF382F07007573
310
646E040000009C0600004C4953549C0100006C676F626C6F6461F4000000F400
310
0000080000001400000038000000030000005800000064000000680000006C00
310
00007000000074000000EC000000F0000000F40000000A000000140000001E00
310
000064000000C8000000E02E0000FE2E0000E24A000001000000010000000000
310
0000000000000000000040A54D08E8AB5A080B000000340A000079EEFFFF350B
310
00003DF0FFFFBC0B00003CF2FFFFBC0B000044F4FFFFBC0B0000BFFAFFFF7B06
310
0000000000000000000000000000C3FFFFFF9E080000221F000040090000301E
310
000064EDFFFF340A000079EEFFFF0CC0C094C0C0844444444894C5C585444444
310
44447300200053006500483E5A08E8944C086674696C30000000000000000000
310
F03F000000000000000000000000000000000000000000000000000000000000
310
F03F00000000000000004C4953545C0000007472666C74726664500000005000
310
00000100000010000000FFFF000018000000500000000800277C010000002A76
310
BA484B93DFBF0000000000000000A0878A6E466025C100000000000000000BC2
310
B5153C22DFBF4A3E10E5E1CE1C414C495354000200006F626A20666C67730400
310
00000002000862626F78100000007677F7FFE68B0700F086F7FF597E07006F62
310
6278200000007677F7FFE68B0700F086F7FF597E07007677F7FFE68B0700F086
310
F7FF597E07007573646E040000009D0600004C4953549C0100006C676F626C6F
310
6461F4000000F400000008000000140000003800000003000000580000006400
310
0000680000006C0000007000000074000000EC000000F0000000F40000000A00
310
0000140000001E00000064000000C8000000E02E0000FE2E0000E24A00000100
310
00000100000000000000000000000000000040A54D0870AE5A080B000000340A
310
000079EEFFFF350B00003DF0FFFFBC0B00003CF2FFFFBC0B000044F4FFFFBC0B
310
0000BFFAFFFF7B060000000000000000000000000000C3FFFFFF9E080000221F
310
000040090000301E000064EDFFFF340A000079EEFFFF0CC0C094C0C084444444
310
4894C5C58544444444447300200053006500483E5A08E8944C086674696C3000
310
0000000000000000F03F00000000000000000000000000000000000000000000
310
0000000000000000F03F00000000000000004C4953545C0000007472666C7472
310
666450000000500000000100000010000000FFFF000018000000500000000800
310
277C010000002A76BA484B93DF3F00000000000000004E40B342D81021C10000
310
0000000000000BC2B5153C22DF3F40E464C1971D1E414C495354A00100006F62
310
6A20666C6773040000000002000862626F78100000000C44F5FF668707006983
310
F7FFB93307006F626278200000000C44F5FF668707006983F7FFB93307000C44
310
F5FF668707006983F7FFB93307007573646E040000009E0600004C4953543C01
310
00006C676F626C6F646194000000940000000800000014000000380000000100
310
00005800000064000000680000006C00000070000000740000008C0000009000
310
0000940000000A000000140000001E00000064000000C8000000E02E0000FE2E
310
0000E24A0000010000000100000000000000000000000000000040A54D08F8B0
310
5A0833C90300FE53FFFF00000000000000000000000000000000A83E5A08E894
310
4C086674696C30000000000000000000F03F0000000000000000000000000000
310
00000000000000000000000000000000F03F00000000000000004C4953545C00
310
00007472666C7472666450000000500000000100000010000000FFFF00001800
310
0000500000000800DF00380000000B9345D399CCE03F1AB159DEFDC3D83F0062
310
30C4C8F224C100000000000000000BC2B5153C22DF3F40E464C1971D1E414C49
310
5354420500006F626A2073706E640400000020EA5A08666C677304000000000A
310
000962626F781000000015B1F1FF6CD30600CE98F6FF349D06006F6262782000
310
000015B1F1FF6CD30600CE98F6FF349D060015B1F1FF6CD30600CE98F6FF349D
310
06007573646E040000009F0600004C495354380100006C676F626C6F64619000
310
00009000000009000000140000003C00000004000000600000006C0000007000
310
000074000000780000007C00000080000000880000008C000000900000000A00
310
0000140000001E00000064000000C8000000E02E0000FE2E00008F3E0000E24A
310
000001000000010000000000000001000000000000000000000070A54D0820EB
310
5A0800000000A0EB5A08683E5A08A8413F016674696C30000000000000000000
310
F03F000000000000000000000000000000000000000000000000000000000000
310
F03F00000000000000004C4953545C0000007472666C74726664500000005000
310
00000100000010000000FFFF000018000000500000000800277C28DE257C6DE5
310
8F10A1F0EF3F00000000000000000000000050CD22C100000000000000000000
310
00000000F03F00000000F8781A417478736D7A010000FFFFFFFFFFFFFFFF0000
310
0000FFFFFFFF08000000060000000000000003000000000000000100000020EA
310
5A086DE58F10A1F0EF3F00000000000000000000000050CD22C1000000000000
310
0000000000000000F03F00000000F8781A41000000000100000070A54D080001
310
0000001D000008555300001C0000000000000000000000000000000000000000
310
0000000000000000000000000000000000000000000000000000000000000000
310
0000000000000000000000000000000000000000000000000000000000000000
310
0000000000000000000000000000000000000000000000000000000000000000
310
0000000000000000000000000000000000000000000000000000000000000000
310
0000000000000000000000000000000000004000000000000000000000000000
310
0000400000000000000060000000000000000000000000000000200000000000
310
0000400000000000000060000000001C00000050524F44554354204445534947
310
4E202620444556454C4F504D454E54007478746A10020000A0E11200A73F5477
310
0100000000000000D007330A782B330AC4E11200CF48547701000000703F0000
310
0000000000000000000000004807330AA833330AE0E11200D02B54776F3F0000
310
00000000E0E21200010000005CE2120004E21200C32D54776F3F000000000000
310
E0E212004B085477D02D547754E21200A9D15277D6D052770000290A00000000
310
2CE21200BBD1527700000000000000008CE21200B435330A0010000000000000
310
48E21200CDDC5277D82A330A01000000FEFFFFFF8CE2120068E21200B1DD5277
310
00000000010000008CE2120000000000B435330A0010000080E2120000000000
310
040000000010000088E2120022DF527700000000B435330AA0E21200A73F5477
310
0100000000000000D007330A782B330AC4E21200CF48547701000000783F0000
310
0000000000000000000000004807330AA833330AE0E21200D02B5477703F0000
310
00000000A8E31200080000005CE3120004E31200FFD052770000290A08E31200
310
5DD0527788631D0050E31200A9D15277D6D052770000290A000000002CE31200
310
BBD152770000000000000000B82553777CE3120060DD4E7700EA5A0800010380
310
A03C330A0000000000000000883B330AA03C330A0100000074E3120074EC327C
310
01000000089BB257000000000000000000000000010000007CE3120068E61200
310
D4E31200A8F9DB56B89E1600783F000000000000E8E31200C8BFC75700000000
310
52C6B45768E612004C495354DC0100006F626A20666C677304000000000A0008
310
62626F781000000020D8F3FF71FE0600A43FF4FFCC7806006F62627820000000
310
20D8F3FF71FE0600A43FF4FFCC78060020D8F3FF71FE0600A43FF4FFCC780600
310
7573646E04000000A00600004C495354780100006C676F626C6F6461D0000000
310
D000000008000000140000003800000003000000580000006400000068000000
310
6C0000007000000074000000C8000000CC000000D00000000A00000014000000
310
1E00000064000000C8000000E02E0000FE2E0000E24A00000100000001000000
310
000000000000000000000000F0A64D08F8015B080700000000000000A5FCFFFF
310
0000000000000000B76FFFFF073AFFFFB76FFFFF073AFFFFB76FFFFF073AFFFF
310
B76FFFFF0000000000000000A5FCFFFF0C44C0C0844448FF0C44C0C084444844
310
A8322B0140332B01483E5A08E8944C086674696C30000000000000000000F03F
310
000000000000000000000000000000000000000000000000000000000000F03F
310
00000000000000004C4953545C0000007472666C747266645000000050000000
310
0100000010000000FFFF000018000000500000000800340020EE120034E8D307
310
4AADE63F9F046CDFA0327A3FDE10073FB88027C10000000000000000D5E98DAF
310
469AE53FF2FC08C3C5F91B414C495354B00100006F626A20666C677304000000
310
000A000862626F7810000000D399F1FFB10F08005141F2FF005E07006F626278
310
20000000D399F1FFB10F08005141F2FF005E0700D399F1FFB10F08005141F2FF
310
005E07007573646E04000000A10600004C4953544C0100006C676F626C6F6461
310
A0000000A0000000070000002400000044000000030000000000000000000000
310
00000000000000006000000064000000680000006C0000007000000098000000
310
9C000000A00000000A000000140000001E00000064000000C8000000E02E0000
310
FE2E0000000000000000000020A74D0840185B08040000000000000000000000
310
F48400002EE70000E20C01000000000000000000000000000C444448A83E5A08
310
A8413F016674696C30000000000000000000F03F000000000000000000000000
310
000000000000000000000000000000000000F03F00000000000000004C495354
310
600000007472666C7472666454000000540000000100000010000000FFFF0000
310
1C000000540000005400000008000000ACA537010000000000000000D80BB9C2
310
322FE73F2EF098875ACC2CC17817BA72B425E5BF0000000000000000B2E4BCF4
310
621F20414C495354940200006F626A20666C677304000000000A000862626F78
310
1000000067C6F1FF3E6708009F85F6FFBBF906006F6262782000000067C6F1FF
310
3E6708009F85F6FFBBF9060012B3F1FF937A0800F098F6FF6AE606007573646E
310
04000000A20600004C495354300200006C676F626C6F64618701000087010000
310
0800000024000000480000000300000000000000000000000000000000000000
310
680000006C000000700000007400000078000000800000007F01000083010000
310
870100000A000000140000001E0000002800000064000000C8000000E02E0000
310
FE2E0000000000000000000050A74D0858245B08437DFCFF410E01001B000000
310
29040000B0FBFFFF000000003B150200D8F6FEFF130C0100BEEBFDFF2C170200
310
67D5FDFFF9000000A6BEFCFFE9CD0000B9FFFCFFE9CD00000D5AFDFFE9CD0000
310
D7A4FDFFBA170100D7A4FDFF0F720100D7A4FDFF63CC01000D5AFDFF2C170200
310
AA01FDFF2C1702002127FCFF2C170200D20BFBFF1F190200A79FFBFF1F190200
310
3818FCFF8EA001003818FCFFB90C01003818FCFFE5780000A79FFBFF54000000
310
D20BFBFF54000000FE77FAFF540000006DFFF9FFE57800006DFFF9FFB90C0100
310
0EFCF8FF11FFFFFF0EFCF8FF3C160200EA8DFAFF3C16020005444444044444C0
310
C0A4C0C0844404C0C0A4C0C0A4C0C0840444440318043400180434683E5A0858
310
8F4D08006674696C30000000000000000000F03F000000000000000000000000
310
000000000000000000000000000000000000F03F00000000000000004C495354
310
5C0000007472666C7472666450000000500000000100000010000000FFFF0000
310
180000005000000008000000B84A2E019144ADB7469AE53F0000000000000000
310
AF0BED785FFA22C100000000000000009144ADB7469AE53FA892530A90F21B41
310
4C4953546E0000006C617972666C6773040000005A0101984C49535456000000
310
6C676F626C6F64614A0000004A0000000300000014000000240000000B000000
310
3000000034000000400000004A000000E8030000D0070000E02E000000000000
310
0500050000000000C1C2C200470072006900640000004C495354B00000006C67
310
6F626C6F64614000000040000000030000001400000024000000000000003000
310
0000340000003C0000004000000064000000CC0B0000E02E0000000000000A00
310
00006C00A100D02F5B084C4953545C0000007472666C74726664500000005000
310
00000100000010000000FFFF0000180000005000000008000000100000000000
310
00000000F03F0000000000000000000000000000000000000000000000000000
310
00000000F03F000000000000000073756D693C0000009823EFFF80FC0A0098E0
310
0E008074F7FF0000000000000000000000000000000000000000B0040000CA01
310
0000000000000D04000000000000B00400000000000000000000000000000000
310
0000000000000000000000000000000000000000000000000000000000000000
310
0000000000000000000000000000000000000000000000000000000000000000
310
0000000000000000000000000000000000000000000000000000000000000000
310
0000000000000000000000000000000000000000000000000000000000000000
310
0000000000000000000000000000000000000000000000000000000000000000
310
0000000000000000000000000000000000000000000000000000000000000000
310
01000000000000001F00000001000000000000001F0000000100000000000000
310
1F00000001000000000000001F0000000900000043004F00520045004C004400
310
52005700000000001F00000001000000000000001F0000000200000031000000
310
4000000000000000000000004000000000000000000000004000000000E10DA7
310
DA40C50140000000208FA5A0DA40C50103000000000000000300000000000000
310
03000000000000001F0000000100000000000000030000000000000003000000
310
4344524303000000000000000300000000000000010000000000000001000000
310
0000000000000000000000000000000000000000000000000000000000000000
310
0000000000000000000000000000000000000000000000000000000000000000
310
0000000000000000000000000000000000000000000000000000000000000000
310
0000000000000000000000000000000000000000000000000000000000000000
310
0000000000000000000000000000000000000000000000000000000000000000
310
0000000000000000000000000000000000000000000000000000000000000000
310
0000000000000000000000000000000000000000000000000000000000000000
310
0000000000000000000000000000000000000000000000000000000000000000
310
0000000000000000000000000000000000000000000000000000000000000000
  1
OLE
  0
ENDSEC
  0
SECTION
  2
OBJECTS
  0
DICTIONARY
  5
C
330
0
100
AcDbDictionary
281
     1
  3
ACAD_GROUP
350
D
  3
ACAD_LAYOUT
350
1A
  3
ACAD_MLINESTYLE
350
17
  3
ACAD_PLOTSETTINGS
350
19
  3
ACAD_PLOTSTYLENAME
350
E
  3
ACAD_SCALELIST
350
47
  0
DICTIONARY
  5
D
102
{ACAD_REACTORS
330
C
102
}
330
C
100
AcDbDictionary
281
     1
  0
DICTIONARY
  5
1A
102
{ACAD_REACTORS
330
C
102
}
330
C
100
AcDbDictionary
281
     1
  3
Layout1
350
1E
  3
Layout2
350
26
  3
Model
350
22
  0
DICTIONARY
  5
17
102
{ACAD_REACTORS
330
C
102
}
330
C
100
AcDbDictionary
281
     1
  3
Standard
350
18
  0
DICTIONARY
  5
19
102
{ACAD_REACTORS
330
C
102
}
330
C
100
AcDbDictionary
281
     1
  0
ACDBDICTIONARYWDFLT
  5
E
102
{ACAD_REACTORS
330
C
102
}
330
C
100
AcDbDictionary
281
     1
  3
Normal
350
F
100
AcDbDictionaryWithDefault
340
F
  0
DICTIONARY
  5
47
102
{ACAD_REACTORS
330
C
102
}
330
C
100
AcDbDictionary
281
     1
  3
A0
350
48
  3
A1
350
49
  3
A2
350
4A
  3
A3
350
4B
  3
A4
350
4C
  3
A5
350
4D
  3
A6
350
4E
  3
A7
350
4F
  3
A8
350
50
  3
A9
350
51
  3
B0
350
52
  3
B1
350
53
  3
B2
350
54
  3
B3
350
55
  3
B4
350
56
  3
B5
350
57
  3
B6
350
58
  3
B7
350
59
  3
B8
350
5A
  3
B9
350
5B
  3
C0
350
5C
  3
C1
350
5D
  3
C2
350
5E
  3
C3
350
5F
  3
C4
350
60
  3
C5
350
61
  3
C6
350
62
  3
C7
350
63
  3
C8
350
64
  3
C9
350
65
  3
D0
350
66
  3
D1
350
67
  3
D2
350
68
  0
LAYOUT
  5
1E
102
{ACAD_REACTORS
330
1A
102
}
330
1A
100
AcDbPlotSettings
  1

  2
none_device
  4

  6

 40
0.0
 41
0.0
 42
0.0
 43
0.0
 44
0.0
 45
0.0
 46
0.0
 47
0.0
 48
0.0
 49
0.0
140
0.0
141
0.0
142
1.0
143
1.0
 70
   688
 72
     1
 73
     0
 74
     5
  7

 75
    16
147
1.0
148
0.0
149
0.0
100
AcDbLayout
  1
Layout1
 70
     1
 71
     1
 10
0.0
 20
0.0
 11
420.0
 21
297.0
 12
0.0
 22
0.0
 32
0.0
 14
1.0000000000E+20
 24
1.0000000000E+20
 34
1.0000000000E+20
 15
-1.0000000000E+20
 25
-1.0000000000E+20
 35
-1.0000000000E+20
146
0.0
 13
0.0
 23
0.0
 33
0.0
 16
1.0
 26
0.0
 36
0.0
 17
0.0
 27
1.0
 37
0.0
 76
     0
330
1B
  0
LAYOUT
  5
26
102
{ACAD_REACTORS
330
1A
102
}
330
1A
100
AcDbPlotSettings
  1

  2
none_device
  4

  6

 40
0.0
 41
0.0
 42
0.0
 43
0.0
 44
0.0
 45
0.0
 46
0.0
 47
0.0
 48
0.0
 49
0.0
140
0.0
141
0.0
142
1.0
143
1.0
 70
   688
 72
     1
 73
     0
 74
     5
  7

 75
    16
147
1.0
148
0.0
149
0.0
100
AcDbLayout
  1
Layout2
 70
     1
 71
     2
 10
0.0
 20
0.0
 11
0.0
 21
0.0
 12
0.0
 22
0.0
 32
0.0
 14
0.0
 24
0.0
 34
0.0
 15
0.0
 25
0.0
 35
0.0
146
0.0
 13
0.0
 23
0.0
 33
0.0
 16
1.0
 26
0.0
 36
0.0
 17
0.0
 27
1.0
 37
0.0
 76
     0
330
23
  0
LAYOUT
  5
22
102
{ACAD_REACTORS
330
1A
102
}
330
1A
100
AcDbPlotSettings
  1

  2
none_device
  4
Letter_(8.50_x_11.00_Inches)
  6

 40
6.35
 41
6.35
 42
6.35000508
 43
6.35000508
 44
215.9
 45
279.4
 46
0.0
 47
0.0
 48
0.0
 49
0.0
140
0.0
141
0.0
142
1.0
143
1.0
 70
  1712
 72
     1
 73
     0
 74
     0
  7

 75
     0
147
1.0
148
0.0
149
0.0
100
AcDbLayout
  1
Model
 70
     1
 71
     0
 10
0.0
 20
0.0
 11
420.0
 21
297.0
 12
0.0
 22
0.0
 32
0.0
 14
0.0
 24
0.0
 34
0.0
 15
420.0
 25
297.0
 35
0.0
146
0.0
 13
0.0
 23
0.0
 33
0.0
 16
1.0
 26
0.0
 36
0.0
 17
0.0
 27
1.0
 37
0.0
 76
     0
330
1F
331
29
  0
MLINESTYLE
  5
18
102
{ACAD_REACTORS
330
17
102
}
330
17
100
AcDbMlineStyle
  2
Standard
 70
     0
  3

 62
   256
 51
90.0
 52
90.0
 71
     2
 49
0.5
 62
   256
  6
BYLAYER
 49
-0.5
 62
   256
  6
BYLAYER
  0
ACDBPLACEHOLDER
  5
F
102
{ACAD_REACTORS
330
E
102
}
330
E
  0
SCALE
  5
48
102
{ACAD_REACTORS
330
47
102
}
330
47
100
AcDbScale
 70
     0
300
1:1
140
1.0
141
1.0
290
     1
  0
SCALE
  5
49
102
{ACAD_REACTORS
330
47
102
}
330
47
100
AcDbScale
 70
     0
300
1:2
140
1.0
141
2.0
290
     0
  0
SCALE
  5
4A
102
{ACAD_REACTORS
330
47
102
}
330
47
100
AcDbScale
 70
     0
300
1:4
140
1.0
141
4.0
290
     0
  0
SCALE
  5
4B
102
{ACAD_REACTORS
330
47
102
}
330
47
100
AcDbScale
 70
     0
300
1:5
140
1.0
141
5.0
290
     0
  0
SCALE
  5
4C
102
{ACAD_REACTORS
330
47
102
}
330
47
100
AcDbScale
 70
     0
300
1:8
140
1.0
141
8.0
290
     0
  0
SCALE
  5
4D
102
{ACAD_REACTORS
330
47
102
}
330
47
100
AcDbScale
 70
     0
300
1:10
140
1.0
141
10.0
290
     0
  0
SCALE
  5
4E
102
{ACAD_REACTORS
330
47
102
}
330
47
100
AcDbScale
 70
     0
300
1:16
140
1.0
141
16.0
290
     0
  0
SCALE
  5
4F
102
{ACAD_REACTORS
330
47
102
}
330
47
100
AcDbScale
 70
     0
300
1:20
140
1.0
141
20.0
290
     0
  0
SCALE
  5
50
102
{ACAD_REACTORS
330
47
102
}
330
47
100
AcDbScale
 70
     0
300
1:30
140
1.0
141
30.0
290
     0
  0
SCALE
  5
51
102
{ACAD_REACTORS
330
47
102
}
330
47
100
AcDbScale
 70
     0
300
1:40
140
1.0
141
40.0
290
     0
  0
SCALE
  5
52
102
{ACAD_REACTORS
330
47
102
}
330
47
100
AcDbScale
 70
     0
300
1:50
140
1.0
141
50.0
290
     0
  0
SCALE
  5
53
102
{ACAD_REACTORS
330
47
102
}
330
47
100
AcDbScale
 70
     0
300
1:100
140
1.0
141
100.0
290
     0
  0
SCALE
  5
54
102
{ACAD_REACTORS
330
47
102
}
330
47
100
AcDbScale
 70
     0
300
2:1
140
2.0
141
1.0
290
     0
  0
SCALE
  5
55
102
{ACAD_REACTORS
330
47
102
}
330
47
100
AcDbScale
 70
     0
300
4:1
140
4.0
141
1.0
290
     0
  0
SCALE
  5
56
102
{ACAD_REACTORS
330
47
102
}
330
47
100
AcDbScale
 70
     0
300
8:1
140
8.0
141
1.0
290
     0
  0
SCALE
  5
57
102
{ACAD_REACTORS
330
47
102
}
330
47
100
AcDbScale
 70
     0
300
10:1
140
10.0
141
1.0
290
     0
  0
SCALE
  5
58
102
{ACAD_REACTORS
330
47
102
}
330
47
100
AcDbScale
 70
     0
300
100:1
140
100.0
141
1.0
290
     0
  0
SCALE
  5
59
102
{ACAD_REACTORS
330
47
102
}
330
47
100
AcDbScale
 70
     0
300
1/128" = 1'-0"
140
0.0078125
141
12.0
290
     0
  0
SCALE
  5
5A
102
{ACAD_REACTORS
330
47
102
}
330
47
100
AcDbScale
 70
     0
300
1/64" = 1'-0"
140
0.015625
141
12.0
290
     0
  0
SCALE
  5
5B
102
{ACAD_REACTORS
330
47
102
}
330
47
100
AcDbScale
 70
     0
300
1/32" = 1'-0"
140
0.03125
141
12.0
290
     0
  0
SCALE
  5
5C
102
{ACAD_REACTORS
330
47
102
}
330
47
100
AcDbScale
 70
     0
300
1/16" = 1'-0"
140
0.0625
141
12.0
290
     0
  0
SCALE
  5
5D
102
{ACAD_REACTORS
330
47
102
}
330
47
100
AcDbScale
 70
     0
300
3/32" = 1'-0"
140
0.09375
141
12.0
290
     0
  0
SCALE
  5
5E
102
{ACAD_REACTORS
330
47
102
}
330
47
100
AcDbScale
 70
     0
300
1/8" = 1'-0"
140
0.125
141
12.0
290
     0
  0
SCALE
  5
5F
102
{ACAD_REACTORS
330
47
102
}
330
47
100
AcDbScale
 70
     0
300
3/16" = 1'-0"
140
0.1875
141
12.0
290
     0
  0
SCALE
  5
60
102
{ACAD_REACTORS
330
47
102
}
330
47
100
AcDbScale
 70
     0
300
1/4" = 1'-0"
140
0.25
141
12.0
290
     0
  0
SCALE
  5
61
102
{ACAD_REACTORS
330
47
102
}
330
47
100
AcDbScale
 70
     0
300
3/8" = 1'-0"
140
0.375
141
12.0
290
     0
  0
SCALE
  5
62
102
{ACAD_REACTORS
330
47
102
}
330
47
100
AcDbScale
 70
     0
300
1/2" = 1'-0"
140
0.5
141
12.0
290
     0
  0
SCALE
  5
63
102
{ACAD_REACTORS
330
47
102
}
330
47
100
AcDbScale
 70
     0
300
3/4" = 1'-0"
140
0.75
141
12.0
290
     0
  0
SCALE
  5
64
102
{ACAD_REACTORS
330
47
102
}
330
47
100
AcDbScale
 70
     0
300
1" = 1'-0"
140
1.0
141
12.0
290
     0
  0
SCALE
  5
65
102
{ACAD_REACTORS
330
47
102
}
330
47
100
AcDbScale
 70
     0
300
1-1/2" = 1'-0"
140
1.5
141
12.0
290
     0
  0
SCALE
  5
66
102
{ACAD_REACTORS
330
47
102
}
330
47
100
AcDbScale
 70
     0
300
3" = 1'-0"
140
3.0
141
12.0
290
     0
  0
SCALE
  5
67
102
{ACAD_REACTORS
330
47
102
}
330
47
100
AcDbScale
 70
     0
300
6" = 1'-0"
140
6.0
141
12.0
290
     0
  0
SCALE
  5
68
102
{ACAD_REACTORS
330
47
102
}
330
47
100
AcDbScale
 70
     0
300
1'-0" = 1'-0"
140
12.0
141
12.0
290
     0
  0
ENDSEC
  0
EOF
